Игры сознания / Minor Premise
Страна: США
Студия: Bad Theology, Relic Pictures, Uncorked Productions
Жанр: фантастика, триллер, драма
Год выпуска: 2020
Продолжительность: 01:35:27--Перевод: Профессиональный (дублированный) iTunes
Субтитры: нет
Оригинальная аудио дорожка: английская--Режиссер: Ф.А. Эрик Шульц / Eric Schultz--В ролях: Сатия Шридхаран, Пейтон Эшбрук, Дэна Эшбрук, Пурва Беди, Алекс Бро, Э.Дж. Кэрролл, Каррон Грейвз, Николас Контоманолис, Мелани Николлз-Кинг, Лев Пэкман--Описание: Молодой нейробиолог Итан исследует загадки подсознания человека и пытается превзойти научные достижения своего отца. Решившись на опасный эксперимент со своим разумом, он даже не подозревает, какие тайны ему откроются и к каким пугающим последствиям это приведёт.--Доп. информация: За исходный ремукс спасибо селезень с КЗ
Сохранена структура ремукса с главами--Сэмпл: http://sendfile.su/1647237--Тип релиза: BDRip 720p (Исходник: Minor.Premise.2020.BDREMUX.1080p.seleZen)
Контейнер: MKV
Видео кодек: H.264
Аудио кодек: DTS, AC3
Видео: MPEG4/AVC, 2.40:1, 23,976 (24000/1001) FPS, 1280x536p, 5087 kb/s
Аудио 1: Русский, AC3, 48.0 kHz, 5.1, 384 kb/s - дублированный iTunes
Аудио 2: Английский, DTS, 48.0 kHz, 5.1, 1509 kb/s, 24 bit

MediaInfo

---[Information] [15.05.2022 18:13:21] x264 [info]: profile High, level 4.1, 4:2:0, 8-bit
---[Information] [15.05.2022 20:28:48] x264 [info]: frame I:937 Avg QP:11.61 size: 94621
---[Information] [15.05.2022 20:28:48] x264 [info]: frame P:25280 Avg QP:13.73 size: 42140
---[Information] [15.05.2022 20:28:48] x264 [info]: frame B:111106 Avg QP:15.25 size: 22392
---[Information] [15.05.2022 20:28:48] x264 [info]: consecutive B-frames: 2.2% 2.5% 4.5% 5.9% 9.7% 46.5% 7.6% 2.8% 2.5% 2.1% 3.5% 2.8% 3.5% 1.7% 0.8% 0.4% 1.2%
---[Information] [15.05.2022 20:28:48] x264 [info]: mb I I16..4: 10.4% 77.7% 11.9%
---[Information] [15.05.2022 20:28:48] x264 [info]: mb P I16..4: 2.8% 22.9% 1.3% P16..4: 27.5% 23.2% 14.1% 0.0% 0.0% skip: 8.3%
---[Information] [15.05.2022 20:28:48] x264 [info]: mb B I16..4: 0.2% 3.7% 0.1% B16..8: 33.4% 18.7% 6.9% direct: 8.0% skip:29.0% L0:51.5% L1:39.4% BI: 9.1%
---[Information] [15.05.2022 20:28:48] x264 [info]: 8x8 transform intra:87.4% inter:57.7%
---[Information] [15.05.2022 20:28:48] x264 [info]: coded y,uvDC,uvAC intra: 88.2% 73.4% 52.4% inter: 39.3% 21.9% 6.9%
---[Information] [15.05.2022 20:28:48] x264 [info]: i16 v,h,dc,p: 70% 9% 7% 14%
---[Information] [15.05.2022 20:28:48] x264 [info]: i8 v,h,dc,ddl,ddr,vr,hd,vl,hu: 12% 7% 16% 9% 12% 11% 11% 11% 12%
---[Information] [15.05.2022 20:28:48] x264 [info]: i4 v,h,dc,ddl,ddr,vr,hd,vl,hu: 14% 7% 7% 11% 15% 13% 12% 11% 12%
---[Information] [15.05.2022 20:28:48] x264 [info]: i8c dc,h,v,p: 48% 23% 17% 11%
---[Information] [15.05.2022 20:28:48] x264 [info]: Weighted P-Frames: Y:3.0% UV:1.9%
---[Information] [15.05.2022 20:28:48] x264 [info]: ref P L0: 41.5% 4.9% 18.8% 8.0% 7.0% 4.8% 4.6% 2.4% 2.4% 1.9% 1.9% 1.6% 0.1% 0.0%
---[Information] [15.05.2022 20:28:48] x264 [info]: ref B L0: 55.3% 15.3% 9.3% 5.3% 4.1% 3.4% 2.8% 1.8% 1.6% 0.9% 0.3%
---[Information] [15.05.2022 20:28:48] x264 [info]: ref B L1: 90.0% 10.0%
---[Information] [15.05.2022 20:28:48] x264 [info]: kb/s:5086.90
---[Information] [15.05.2022 20:28:48] encoded 137323 frames, 16.88 fps, 5086.90 kb/s
Общее
Уникальный идентификатор : 13677296214548543463074106316320168801 (0xA4A26C45D537886F993189EDB1C5B61)
Полное имя : E:\Minor.Premise.2020.720p-DFM.mkv
Формат : Matroska
Версия формата : Version 4
Размер файла : 4,66 Гбайт
Продолжительность : 1 ч. 35 м.
Общий поток : 6 982 Кбит/сек
Название фильма : Minor.Premise.2020 - Rutracker
Дата кодирования : UTC 2022-05-16 06:28:31
Программа кодирования : mkvmerge v66.0.0 ('Josie') 64-bit
Библиотека кодирования : libebml v1.4.2 + libmatroska v1.6.4
Обложка : Yes
Attachments : cover.jpg
Видео
Идентификатор : 1
Формат : AVC
Формат/Информация : Advanced Video Codec
Профиль формата : [email protected]
Настройки формата : CABAC / 12 Ref Frames
Параметр CABAC формата : Да
Параметр RefFrames формата : 12 кадров
Идентификатор кодека : V_MPEG4/ISO/AVC
Продолжительность : 1 ч. 35 м.
Битрейт : 5 087 Кбит/сек
Ширина : 1 280 пикселей
Высота : 536 пикселей
Соотношение сторон : 2,40:1
Режим частоты кадров : Постоянный
Частота кадров : 23,976 (24000/1001) кадра/сек
Цветовое пространство : YUV
Субдискретизация насыщенности : 4:2:0
Битовая глубина : 8 бит
Тип развёртки : Прогрессивная
Бит/(Пиксели*Кадры) : 0.309
Размер потока : 3,39 Гбайт (73%)
Заголовок : Minor.Premise.2020 - ripped by +LION1234+
Библиотека кодирования : x264 core 164 r3094 bfc87b7
Настройки программы : cabac=1 / ref=12 / deblock=1:-3:-3 / analyse=0x3:0x113 / me=umh / subme=10 / psy=1 / psy_rd=1.02:0.00 / mixed_ref=1 / me_range=32 / chroma_me=1 / trellis=2 / 8x8dct=1 / cqm=0 / deadzone=21,11 / fast_pskip=0 / chroma_qp_offset=-2 / threads=17 / lookahead_threads=4 / sliced_threads=0 / nr=0 / decimate=0 / interlaced=0 / bluray_compat=0 / constrained_intra=0 / bframes=16 / b_pyramid=2 / b_adapt=2 / b_bias=0 / direct=1 / weightb=1 / open_gop=0 / weightp=2 / keyint=240 / keyint_min=23 / scenecut=40 / intra_refresh=0 / rc_lookahead=60 / rc=crf / mbtree=0 / crf=16.7 / qcomp=0.64 / qpmin=0 / qpmax=54 / qpstep=4 / vbv_maxrate=50000 / vbv_bufsize=62500 / crf_max=0.0 / nal_hrd=none / filler=0 / ip_ratio=1.40 / pb_ratio=1.20 / aq=3:0.75
Default : Да
Forced : Нет
Аудио #1
Идентификатор : 2
Формат : AC-3
Формат/Информация : Audio Coding 3
Коммерческое название : Dolby Digital
Идентификатор кодека : A_AC3
Продолжительность : 1 ч. 35 м.
Вид битрейта : Постоянный
Битрейт : 384 Кбит/сек
Каналы : 6 каналов
Channel layout : L R C LFE Ls Rs
Частота : 48,0 КГц
Частота кадров : 31,250 кадров/сек (1536 SPF)
Метод сжатия : С потерями
Размер потока : 262 Мбайт (5%)
Заголовок : дубляж iTunes
Язык : Russian
Service kind : Complete Main
Default : Да
Forced : Нет
Аудио #2
Идентификатор : 3
Формат : DTS
Формат/Информация : Digital Theater Systems
Идентификатор кодека : A_DTS
Продолжительность : 1 ч. 35 м.
Вид битрейта : Постоянный
Битрейт : 1 509 Кбит/сек
Каналы : 6 каналов
Channel layout : C L R Ls Rs LFE
Частота : 48,0 КГц
Частота кадров : 93,750 кадра/сек (512 SPF)
Битовая глубина : 24 бит
Метод сжатия : С потерями
Размер потока : 1,01 Гбайт (22%)
Заголовок : английский
Язык : English
Default : Нет
Forced : Нет
Меню
00:00:00.000 : :Глава 01
00:08:48.820 : :Глава 02
00:18:15.761 : :Глава 03
00:24:09.865 : :Глава 04
00:30:17.649 : :Глава 05
00:37:40.341 : :Глава 06
00:45:46.869 : :Глава 07
00:57:03.503 : :Глава 08
01:04:04.799 : :Глава 09
01:11:40.254 : :Глава 10
01:19:21.090 : :Глава 11
01:31:41.162 : :Глава 12

Скриншоты

Сравнение

BD---------------------------------RIP