Сумерки / Twilight / Open Matte
Страна: США
Студия: Summit Entertainment, Temple Hill Entertainment, Maverick Films, Imprint Entertainment, Goldcrest Pictures, Twilight Productions
Жанр: фэнтези, драма, мелодрама
Год выпуска: 2008
Продолжительность: 02:01:48
Перевод: Профессиональный (дублированный)
Субтитры: русские, английские
Оригинальная аудиодорожка: английский
Режиссер: Катрин Хардвик / Catherine Hardwicke
В ролях: Кристен Стюарт, Роберт Паттинсон, Билли Бёрк, Эшли Грин, Никки Рид, Джексон Рэтбоун, Тэйлор Лотнер, Питер Фачинелли, Рашель Лефевр, Кэм Жиганде
Описание: Семнадцатилетняя девушка Белла переезжает к отцу в небольшой городок Форкс. Она влюбляется в загадочного одноклассника, который, как оказалось, происходит из семьи вампиров, отказавшихся от нападений на людей. Влюбиться в вампира. Это страшно? Это романтично, это прекрасно и мучительно, но это не может кончиться добром, особенно в вечном противостоянии вампирских кланов, где малейшее отличие от окружающих уже превращает вас во врага.
Доп. информация: Исходник видео WEB-DL Amazon.
Open Matte-версия фильма имеет большее наполнение кадра по сравнению с Blu-ray.
Раздача мультитрекерная.
Сэмпл: http://sendfile.su/1647273
Тип релиза: WEB-DL 1080p
Контейнер: MKV
Видео: AVC/H.264, 1920х1080, 23.976 fps, 12.1 Mbps
Аудио 1: AC3, 6 ch, 448 kbps - Русский (DUB)
Аудио 2: AC3, 6 ch, 640 kbps - Английский

MediaInfo

General
Unique ID : 171826056705776530786978999083084326948 (0x81447EAA22B77FD1BA1632F66EF4A824)
Complete name : D:\Twilight (2008) Open Matte WEB-DL 1080p.mkv
Format : Matroska
Format version : Version 4
File size : 11.2 GiB
Duration : 2 h 1 min
Overall bit rate : 13.2 Mb/s
Encoded date : UTC 2021-01-30 16:23:32
Writing application : mkvmerge v8.3.0 ('Over the Horizon') 32bit
Writing library : libebml v1.3.1 + libmatroska v1.4.2
Video
ID : 1
Format : AVC
Format/Info : Advanced Video Codec
Format profile : [email protected]
Format settings : CABAC / 4 Ref Frames
Format settings, CABAC : Yes
Format settings, Reference : 4 frames
Codec ID : V_MPEG4/ISO/AVC
Duration : 2 h 1 min
Bit rate : 12.1 Mb/s
Width : 1 920 pixels
Height : 1 080 pixels
Display aspect ratio : 16:9
Frame rate mode : Constant
Frame rate : 23.976 (24000/1001) FPS
Color space : YUV
Chroma subsampling : 4:2:0
Bit depth : 8 bits
Scan type : Progressive
Bits/(Pixel*Frame) : 0.243
Stream size : 10.3 GiB (92%)
Language : English
Default : Yes
Forced : No
Color range : Limited
Color primaries : BT.709
Transfer characteristics : BT.709
Matrix coefficients : BT.709
Audio #1
ID : 2
Format : AC-3
Format/Info : Audio Coding 3
Commercial name : Dolby Digital
Codec ID : A_AC3
Duration : 2 h 1 min
Bit rate mode : Constant
Bit rate : 448 kb/s
Channel(s) : 6 channels
Channel layout : L R C LFE Ls Rs
Sampling rate : 48.0 kHz
Frame rate : 31.250 FPS (1536 SPF)
Compression mode : Lossy
Stream size : 390 MiB (3%)
Title : DUB
Language : Russian
Service kind : Complete Main
Default : Yes
Forced : No
Audio #2
ID : 3
Format : AC-3
Format/Info : Audio Coding 3
Commercial name : Dolby Digital
Codec ID : A_AC3
Duration : 2 h 1 min
Bit rate mode : Constant
Bit rate : 640 kb/s
Channel(s) : 6 channels
Channel layout : L R C LFE Ls Rs
Sampling rate : 48.0 kHz
Frame rate : 31.250 FPS (1536 SPF)
Compression mode : Lossy
Stream size : 558 MiB (5%)
Language : English
Service kind : Complete Main
Default : No
Forced : No
Text #1
ID : 4
Format : UTF-8
Codec ID : S_TEXT/UTF8
Codec ID/Info : UTF-8 Plain Text
Duration : 1 h 55 min
Bit rate : 74 b/s
Count of elements : 1221
Stream size : 62.4 KiB (0%)
Language : Russian
Default : No
Forced : No
Text #2
ID : 5
Format : UTF-8
Codec ID : S_TEXT/UTF8
Codec ID/Info : UTF-8 Plain Text
Duration : 2 h 1 min
Bit rate : 53 b/s
Count of elements : 1560
Stream size : 47.3 KiB (0%)
Language : English
Default : No
Forced : No
Menu
00:00:00.000 : en:00:00:00.000
00:05:41.716 : en:00:05:41.716
00:20:50.833 : en:00:20:50.833
00:21:56.982 : en:00:21:56.982
00:30:24.531 : en:00:30:24.531
00:31:57.332 : en:00:31:57.332
00:33:48.985 : en:00:33:48.985
00:35:25.915 : en:00:35:25.915
00:50:15.721 : en:00:50:15.721
00:56:17.082 : en:00:56:17.082
01:12:13.621 : en:01:12:13.621
01:18:50.059 : en:01:18:50.059
01:29:37.789 : en:01:29:37.789
01:35:48.368 : en:01:35:48.368
01:47:31.945 : en:01:47:31.945
01:49:01.118 : en:01:49:01.118
01:50:00.969 : en:01:50:00.969

Сравнения