Оторви и выбрось
«Это полный трындец»
Страна: Россия
Жанр: Kомедия, боевик
Год выпуска: 2021
Продолжительность: 01:38:59-Перевод: Не требуется
Cубтитры: Нет
Оригинальная аудиодорожка: Русский-Режиссёр: Кирилл Соколов
В ролях: Анна Михалкова, Виктория Короткова, Софья Кругова, Александр Яценко, Ольга Лапшина, Виталий Хаев, Данил Стеклов, Игорь Грабузов, Николай Шрайбер
Описание: От любящей родни не уйдешь. Суровая Вера Павловна отправляется в лихую погоню за своей внучкой Машей и непутёвой дочерью Олей. Помогает ей в этом Олег — все еще влюбленный в Олю «бывший», даже после того, как посадил за решетку. Кажется, во всей этой уморительной суматохе только маленькая Маша знает, как взрослым не слететь с катушек.- -Тип релиза: BDRemux 1080p
Контейнер: MKV-Видео: AVC/H.264, 1920x1080, 20000 Kbps, 24.000 fps
Аудио 1: Русский | DTS-HD MA, 6 ch, 1915 Kbps, 48.0 kHz, 24-bit (DTS Core: 5.1 / 48 kHz / 1509 kbps / 24-bit)
-

MediaInfo

Код:
General
Unique ID : 119150754258514551862953156433578617666 (0x59A399BDCB51567A902637454DECEB42)
Complete name : /Volumes/Promise Pegasus/Otorvi.i.vybros.2021.BDRemux.1080p.pk.mkv
Format : Matroska
Format version : Version 4
File size : 15.1 GiB
Duration : 1 h 38 min
Overall bit rate mode : Variable
Overall bit rate : 21.9 Mb/s
Movie name : Otorvi i vybros 2021 BDRemux 1080p pk
Encoded date : UTC 2022-05-16 17:29:41
Writing application : mkvmerge v53.0.0 ('Fool's Gold') 64-bit
Writing library : libebml v1.4.1 + libmatroska v1.6.2
Video
ID : 1
Format : AVC
Format/Info : Advanced Video Codec
Format profile : [email protected]
Format settings : CABAC / 4 Ref Frames
Format settings, CABAC : Yes
Format settings, Reference frames : 4 frames
Codec ID : V_MPEG4/ISO/AVC
Duration : 1 h 38 min
Bit rate mode : Variable
Bit rate : 20.0 Mb/s
Maximum bit rate : 38.0 Mb/s
Width : 1 920 pixels
Height : 1 080 pixels
Display aspect ratio : 16:9
Frame rate mode : Constant
Frame rate : 24.000 FPS
Standard : Component
Color space : YUV
Chroma subsampling : 4:2:0
Bit depth : 8 bits
Scan type : Progressive
Bits/(Pixel*Frame) : 0.402
Stream size : 13.8 GiB (91%)
Writing library : x264 core 155
Encoding settings : cabac=1 / ref=4 / deblock=1:0:0 / analyse=0x3:0x113 / me=hex / subme=7 / psy=1 / psy_rd=1.00:0.00 / mixed_ref=1 / me_range=16 / chroma_me=1 / trellis=1 / 8x8dct=1 / cqm=1 / deadzone=21,11 / fast_pskip=1 / chroma_qp_offset=-2 / threads=34 / lookahead_threads=5 / sliced_threads=0 / slices=4 / nr=0 / decimate=1 / interlaced=0 / minigop=1 / stitchable=1 / constrained_intra=0 / bframes=3 / b_pyramid=0 / b_adapt=1 / b_bias=0 / direct=1 / weightb=1 / open_gop=1 / weightp=1 / keyint=24 / keyint_min=1 / scenecut=40 / intra_refresh=0 / rc_lookahead=24 / rc=2pass / mbtree=1 / bitrate=20000 / ratetol=1.0 / qcomp=0.60 / qpmin=3 / qpmax=69 / qpstep=4 / cplxblur=20.0 / qblur=0.5 / vbv_maxrate=38000 / vbv_bufsize=30000 / nal_hrd=vbr / filler=0 / ip_ratio=1.40 / aq=1:1.00
Language : German
Default : Yes
Forced : No
Color range : Limited
Color primaries : BT.709
Transfer characteristics : BT.709
Matrix coefficients : BT.709
Audio
ID : 2
Format : DTS XLL
Format/Info : Digital Theater Systems
Commercial name : DTS-HD Master Audio
Codec ID : A_DTS
Duration : 1 h 38 min
Bit rate mode : Variable
Bit rate : 1 915 kb/s
Channel(s) : 6 channels
Channel layout : C L R Ls Rs LFE
Sampling rate : 48.0 kHz
Frame rate : 93.750 FPS (512 SPF)
Bit depth : 24 bits
Compression mode : Lossless
Stream size : 1.32 GiB (9%)
Title : Russian Original
Language : Russian
Default : Yes
Forced : No
Menu
00:00:00.000 : en:00:00:00.000
00:07:46.000 : en:00:07:46.000
00:15:43.000 : en:00:15:43.000
00:26:09.333 : en:00:26:09.333
00:32:38.750 : en:00:32:38.750
00:39:44.167 : en:00:39:44.167
00:48:39.250 : en:00:48:39.250
00:56:45.167 : en:00:56:45.167
01:05:09.958 : en:01:05:09.958
01:10:50.458 : en:01:10:50.458
01:20:24.375 : en:01:20:24.375
01:28:52.125 : en:01:28:52.125
01:35:49.250 : en:01:35:49.250
01:38:59.667 : en:01:38:59.667

Скриншоты