Зона отчуждения. Выжить в Чернобыле (1-3 выпуски из 3) [2019, Документальный, история, катастрофы, экология, WEBRip] :: Российский Торрент трекер
Российский Торрент трекер
Яндекс.Погода
 

[Quote]
HUNTER

Зона отчуждения. Выжить в Чернобыле (1-3 выпуски из 3)
Дата/Год выпуска: 2019
Страна: Россия
Жанр: Документальный, история, катастрофы, экология
Продолжительность: 3 x ~ 00:26:00
Перевод: Не требуется
Русские субтитры: нет
Оригинальная аудиодорожка: русский
Описание: 26 апреля 1986 года произошла самая страшная техногенная катастрофа в истории человечества – взорвался реактор четвертого энергоблока Чернобыльской АЭС. Погибли люди. Многие заболели лучевой болезнью. Сотни тысяч гектаров стали непригодными для жизни… С тех пор прошло 34 года. На территориях, окружающих Чернобыльскую АЭС проживать по-прежнему запрещено. Но люди здесь есть. А еще – здесь кипит животная и растительная жизнь. Трёхсерийный документальный проект «Выжить в Чернобыле» представит зрителям ситуацию в Чернобыльской зоне отчуждения без легенд и приукрашивания, без страшилок и лишнего оптимизма. Потому что выживать в условиях экстремальной радиации пришлось также и нашей съемочной группе. Правдивые ответы из первых уст – в документальном проекте «Выжить в Чернобыле»!
качество: WEBRip
формат: AVI
Видео: XviD, 1800 Кбит/с, 720x400
Аудио: 192kbps, 2 (stereo), 48kHz, mp3

MediaInfo

Общее
Полное имя : D:\Зона отчуждения. Выжить в Чернобыле\01.Выжить в Чернобыле. Зона отчуждения. Воздух.avi
Формат : AVI
Формат/Информация : Audio Video Interleave
Размер файла : 398 Мбайт
Продолжительность : 26 м. 30 с.
Общий поток : 2 101 Кбит/сек
Программа кодирования : Lavf54.63.104
Видео
Идентификатор : 0
Формат : xvid
Идентификатор кодека : xvid
Продолжительность : 26 м. 30 с.
Битрейт : 1 896 Кбит/сек
Ширина : 720 пикселей
Высота : 400 пикселей
Соотношение сторон : 16:9
Частота кадров : 25,000 кадров/сек
Тип развёртки : Прогрессивная
Бит/(Пиксели*Кадры) : 0.263
Размер потока : 360 Мбайт (90%)
Аудио
Идентификатор : 1
Формат : MPEG Audio
Версия формата : Version 1
Профиль формата : Layer 3
Настройки формата : Joint stereo
Идентификатор кодека : 55
Идентификатор кодека/Подсказка : MP3
Продолжительность : 26 м. 30 с.
Вид битрейта : Постоянный
Битрейт : 192 Кбит/сек
Каналы : 2 канала
Частота : 48,0 КГц
Метод сжатия : С потерями
Размер потока : 36,4 Мбайт (9%)
Выравнивание : Соединение по промежуткам
Продолжительность промежутка : 24 мс. (0,60 видеокадр)
Библиотека кодирования : LAME3.99.5

Скриншоты



Display posts:    

Current time is: 26-May 11:41

All times are UTC ± 0


You cannot post new topics in this forum
You cannot reply to topics in this forum
You cannot edit your posts in this forum
You cannot delete your posts in this forum
You cannot vote in polls in this forum
You cannot attach files in this forum
You cannot download files in this forum

!ATTENTION!
The site does not give electronic versions of products, and is engaged only in a collecting and cataloguing of the references sent and published at a forum by our readers. If you are the legal owner of any submitted material and do not wish that the reference to it was in our catalogue, contact us and we shall immediately remove her. Files for an exchange on tracker are given by users of a site, and the administration does not bear the responsibility for their maintenance. The request to not fill in the files protected by copyrights, and also files of the illegal maintenance!