Российский Торрент трекер
Яндекс.Погода
 

[Quote]
palych74

Золотой запас-- Год выпуска: 2012
Производство: ЛЕАН-М
Жанр: Боевик, драма, криминал
Продолжительность: ~00:45:00 серия-Режиссёр: Мурад Алиев, Дмитрий Матов
В ролях: Михаил Мамаев, Лилия Мэй, Михаил Хмуров, Александр Зельский, Игорь Волков, Сейдулла Молдаханов, Екатерина Чебышева, Илья Оболонков, Андрей Харыбин, Роман Синицын, Дмитрий Калистратов, Юрий Назаров, Игорь Савочкин, Сергей Беляев-Описание: Капитан погранвойск в отставке Сергей Бронников возвращается в родной сибирский городок, чтобы осесть там навсегда. Его отец, геолог на пенсии, делится с сыном тайной. Оказывается, он нашел богатейшую золотую жилу! К несчастью, об этом узнает «крестный отец» всего города, владелец нелегального золотого рудника Мезенцев. Старый геолог умирает под пытками, а его сына похищают и увозят в тайгу на рудник, чтобы выпытать у него дорогу к золоту. Так Сергей становится одним из рабов на нелегальных рудниках — одним из тех, кого никто не ищет и чья жизнь ничего не стоит.
Все, что он успевает перед похищением, — это сообщить о смерти отца своему бывшему сослуживцу, офицеру ФСБ Стасу Шеремету. Тот тут же отправляется на помощь другу. Ему предстоит самому стать подозреваемым, попасть в розыск, исчезнуть и пройти через тайгу, чтобы найти и выручить бывшего товарища-однополчанина.
-Все раздачи сериала / Сэмпл-Качество: SATRip
Формат: AVI
Видео кодек: XviD
Аудио кодек: MP3
Видео: 720x400, (16:9), 25.000 fps, XviD, ~1800 kbps avg, 0.249 bit/pixel
Аудио: 48 kHz, MP3, 2 ch, ~192.00 kbps avg
Рекламы нет!

Раздача ведётся путём добавления новых серий

Внимание! Раздача ведётся путём добавления новых серий; при каждом добавлении создаётся новый торрент. Чтобы начать докачку новой серии, пользователям необходимо сделать следующее:
(1) остановить скачивание,
(2) удалить старый торрент у себя из клиента (старые серии удалять не надо),
(3) скачать новый торрент и запустить его у себя в клиенте вместо старого, при этом указать клиенту путь в старую папку куда и должно происходить скачивание новых серий.
Ваш клиент при этом должен произвести хеширование (проверку) старой папки (если не производит сам - помогите ему сделать это), и будет докачивать только те серии которых у вас ещё нет. Старые серии при этом не удаляются, а продолжают раздаваться!
Eсли вы уже удалили старые серии, то предотвратить повторную закачку старых серий можно, отжав галочку в соответствующих местах при запуске нового торрента. По возможности, желательно не удалять старые серии как можно дольше чтобы релизёр не столько продолжал раздавать старые серии, а смог сконцентрироваться на новых.

MI

General
Complete name : Zolotoy zapas\01_serija.avi
Format : AVI
Format/Info : Audio Video Interleave
File size : 597 MiB
Duration : 41mn 49s
Overall bit rate : 1 995 Kbps
Director :
Writing application : VirtualDubMod 1.5.10.2 (build 2540/release)
Writing library : VirtualDubMod build 2540/release
Video
ID : 0
Format : MPEG-4 Visual
Format profile : Advanced [email protected]
Format settings, BVOP : 1
Format settings, QPel : No
Format settings, GMC : No warppoints
Format settings, Matrix : Custom
Codec ID : XVID
Codec ID/Hint : XviD
Duration : 41mn 49s
Bit rate : 1 794 Kbps
Width : 720 pixels
Height : 400 pixels
Display aspect ratio : 16:9
Frame rate : 25.000 fps
Color space : YUV
Chroma subsampling : 4:2:0
Bit depth : 8 bits
Scan type : Progressive
Compression mode : Lossy
Bits/(Pixel*Frame) : 0.249
Stream size : 537 MiB (90%)
Writing library : XviD 1.2.1 (UTC 2008-12-04)
Audio
ID : 1
Format : MPEG Audio
Format version : Version 1
Format profile : Layer 3
Codec ID : 55
Codec ID/Hint : MP3
Duration : 41mn 49s
Bit rate mode : Constant
Bit rate : 192 Kbps
Channel(s) : 2 channels
Sampling rate : 48.0 KHz
Compression mode : Lossy
Stream size : 57.4 MiB (10%)
Alignment : Aligned on interleaves
Interleave, duration : 40 ms (1.00 video frame)
Interleave, preload duration : 504 ms
Writing library : LAME3.98r
Encoding settings : -m s -V 4 -q 0 -lowpass 18.6 -b 192

Скриншоты

Добавлены 23-24 cерии.


Display posts:    

Current time is: 29-Nov 05:04

All times are UTC ± 0


You cannot post new topics in this forum
You cannot reply to topics in this forum
You cannot edit your posts in this forum
You cannot delete your posts in this forum
You cannot vote in polls in this forum
You cannot attach files in this forum
You cannot download files in this forum

!ATTENTION!
The site does not give electronic versions of products, and is engaged only in a collecting and cataloguing of the references sent and published at a forum by our readers. If you are the legal owner of any submitted material and do not wish that the reference to it was in our catalogue, contact us and we shall immediately remove her. Files for an exchange on tracker are given by users of a site, and the administration does not bear the responsibility for their maintenance. The request to not fill in the files protected by copyrights, and also files of the illegal maintenance!