Ивановский Торрент трекер
Яндекс.Погода
 

[Quote]
HUNTER

Журналист (Манхэттенская ночь) / Manhattan Night / Manhattan Nocturne
Страна: США
Студия: Big Indie Pictures, Fable House, Untravelled Worlds
Жанр: триллер, драма, криминал
Год выпуска: 2016
Продолжительность: 01:53:56
Перевод: Профессиональный (дублированный) iTunes
Субтитры: английские
Оригинальная аудиодорожка: английский
Режиссер: Брайан ДеКьюбелис / Brian DeCubellis
В ролях: Ивонн Страховски, Эдриан Броуди, Дженнифер Билз, Кэмпбелл Скотт, Стивен Беркофф, Линда Лавин, Кевин Брезнахан, Амели МакКендри, Томас Баир, Мэдисон Элизабет Лахарес
Описание: С просьбы соблазнительной незнакомки разобраться в нераскрытом убийстве ее мужа начинается неприятная история сексуальной одержимости и шантажа, которая может стоить журналисту Портеру Рену его работы, семьи и даже жизни.
| IMDB | КиноПоиск | Сэмпл |
Сохранены оригинальные чаптеры
Тип релиза: BDRip 1080p
Контейнер: MKV
Видео: MPEG-4 AVC Video 10,3 Mbps 1920x804 / 23,976 fps
Аудио: Dolby Digital Audio Russian 384 kbps 5.1 / 48 kHz
Аудио 2: DTS Audio English 1509 kbps 5.1 / 48 kHz
Формат субтитров: softsub (SRT)

MediaInfo

General
Unique ID : 246443229949621296681874632410715131358 (0xB9673D576B1A66599488F6ADACBC0DDE)
Complete name : Gurnalist.2016.D.BDRip.1080p.mkv
Format : Matroska
Format version : Version 2
File size : 9.90 GiB
Duration : 1 h 53 min
Overall bit rate : 12.4 Mb/s
Movie name : Manhattan Night 2016 от werecut'a
Encoded date : UTC 2018-02-27 13:55:20
Writing application : mkvmerge v2.9.9 ('Tutu') built on Nov 25 2009 21:13:32
Writing library : libebml v0.7.9 + libmatroska v0.8.1
Video
ID : 1
Format : AVC
Format/Info : Advanced Video Codec
Format profile : [email protected]
Format settings : CABAC / 5 Ref Frames
Format settings, CABAC : Yes
Format settings, RefFrames : 5 frames
Codec ID : V_MPEG4/ISO/AVC
Duration : 1 h 53 min
Bit rate : 10.3 Mb/s
Width : 1 920 pixels
Height : 804 pixels
Display aspect ratio : 2.40:1
Frame rate mode : Constant
Frame rate : 23.976 (24000/1001) FPS
Color space : YUV
Chroma subsampling : 4:2:0
Bit depth : 8 bits
Scan type : Progressive
Bits/(Pixel*Frame) : 0.278
Stream size : 8.19 GiB (83%)
Writing library : x264 core 142 r2431+42 c69a006 tMod [[email protected] X86]
Encoding settings : cabac=1 / ref=5 / deblock=1:-3:-3 / analyse=0x3:0x113 / me=umh / subme=11 / psy=1 / fade_compensate=0.00 / psy_rd=1.00:0.05 / mixed_ref=1 / me_range=48 / chroma_me=1 / trellis=2 / 8x8dct=1 / cqm=0 / deadzone=21,11 / fast_pskip=0 / chroma_qp_offset=-2 / threads=12 / lookahead_threads=2 / sliced_threads=0 / nr=0 / decimate=1 / interlaced=0 / bluray_compat=0 / constrained_intra=0 / fgo=0 / bframes=8 / b_pyramid=2 / b_adapt=2 / b_bias=0 / direct=3 / weightb=1 / open_gop=0 / weightp=2 / keyint=250 / keyint_min=23 / scenecut=40 / intra_refresh=0 / rc_lookahead=40 / rc=crf / mbtree=0 / crf=18.3000 / qcomp=0.60 / qpmin=0:0:0 / qpmax=69:69:69 / qpstep=4 / vbv_maxrate=40000 / vbv_bufsize=30000 / crf_max=0.0 / nal_hrd=none / filler=0 / ip_ratio=1.40 / pb_ratio=1.30 / aq=3:1.00 / aq-sensitivity=10.00 / aq-factor=1.00:1.00:1.00 / aq2=0 / aq3=0
Language : English
Default : No
Forced : No
Color range : Limited
Matrix coefficients : BT.709
Audio #1
ID : 2
Format : AC-3
Format/Info : Audio Coding 3
Codec ID : A_AC3
Duration : 1 h 53 min
Bit rate mode : Constant
Bit rate : 384 kb/s
Channel(s) : 6 channels
Channel positions : Front: L C R, Side: L R, LFE
Sampling rate : 48.0 kHz
Frame rate : 31.250 FPS (1536 SPF)
Bit depth : 16 bits
Compression mode : Lossy
Stream size : 313 MiB (3%)
Language : Russian
Service kind : Complete Main
Default : Yes
Forced : No
Audio #2
ID : 3
Format : DTS
Format/Info : Digital Theater Systems
Codec ID : A_DTS
Duration : 1 h 53 min
Bit rate mode : Constant
Bit rate : 1 509 kb/s
Channel(s) : 6 channels
Channel positions : Front: L C R, Side: L R, LFE
Sampling rate : 48.0 kHz
Frame rate : 93.750 FPS (512 SPF)
Bit depth : 24 bits
Compression mode : Lossy
Delay relative to video : 11 ms
Stream size : 1.20 GiB (12%)
Language : English
Default : No
Forced : No
Text
ID : 4
Format : UTF-8
Codec ID : S_TEXT/UTF8
Codec ID/Info : UTF-8 Plain Text
Language : English
Default : No
Forced : No
Menu
00:00:00.000 : en:00:00:00.000
00:09:27.150 : en:00:09:27.150
00:14:56.562 : en:00:14:56.562
00:25:48.714 : en:00:25:48.714
00:32:18.770 : en:00:32:18.770
00:39:42.672 : en:00:39:42.672
00:48:02.838 : en:00:48:02.838
00:59:05.208 : en:00:59:05.208
01:06:32.030 : en:01:06:32.030
01:11:48.471 : en:01:11:48.471
01:18:48.849 : en:01:18:48.849
01:25:02.389 : en:01:25:02.389
01:29:03.004 : en:01:29:03.004
01:31:47.836 : en:01:31:47.836
01:40:28.022 : en:01:40:28.022
01:46:12.408 : en:01:46:12.408

Скриншоты



Display posts:    

Current time is: 22-Oct 01:24

All times are UTC ± 0


You cannot post new topics in this forum
You cannot reply to topics in this forum
You cannot edit your posts in this forum
You cannot delete your posts in this forum
You cannot vote in polls in this forum
You cannot attach files in this forum
You cannot download files in this forum

!ATTENTION!
The site does not give electronic versions of products, and is engaged only in a collecting and cataloguing of the references sent and published at a forum by our readers. If you are the legal owner of any submitted material and do not wish that the reference to it was in our catalogue, contact us and we shall immediately remove her. Files for an exchange on tracker are given by users of a site, and the administration does not bear the responsibility for their maintenance. The request to not fill in the files protected by copyrights, and also files of the illegal maintenance!