Ивановский Торрент трекер
Яндекс.Погода
 

[Quote]
HUNTER

Жених из Майами
Страна: Россия
Студия: Новый одеон
Жанр: Комедия
Год выпуска: 1994
Продолжительность: 01:16:08
Перевод: Не требуется
Субтитры: нет
Оригинальная аудиодорожка: русский
Режиссер: Анатолий Эйрамджан
В ролях: Борис Щербаков, Михаил Державин, Татьяна Догилева, Вера Алентова, Лариса Удовиченко, Людмила Иванова, Роксана Бабаян, Татьяна Васильева, Дмитрий Харатьян
Описание: Сергей (Щербаков) эмигрировал в Америку с женой, стремительно бросившей его ради богатого. Без жены Сергею плохо, а с проститутками у него одни неприятности. По совету друга и дочери отправляется он в Россию, так как местные кандидатки ему не подходят. Останавливается у своего дяди (Державин) и приступает к поискам. Первая не понравилась, так как легла с ним в первый вечер. Вторая подмешала им в вино и обчистила квартиру, третья в Америку не захотела, так как в Москве имела мерседес и дом в Переделкино. Поиски затянулись, но они то и являются темой этой легкой комедии, которые Эйрамджан неизменно выдает "на гора" каждый год. (М. Иванов)

Сравнение с DVD

Это не просто обрезка из 4:3 до 16:9, по бокам много добавили, но при этом убрали чуть снизу и побольше сверху.
В принципе в фильме нет сцен где бы были обрезаны головы или какая то важная часть кадра, смотрится это нормально.
Я думаю фильм уже изначально снимали с расчётом обрезка кадра до широкого экрана


Сэмпл: Сэмпл
Тип релиза: HDTV 1080i
Контейнер: MKV
Видео: MPEG4 Video (H264) 1920x1080 25fps ~10.800 kbps
Аудио: MPEG Audio 48000Hz stereo 192kbps

MediaInfo

Complete name : Жених из Майами (1994) HDTV 1080i by MIF.mkv
Format : Matroska
Format version : Version 4 / Version 2
File size : 5.87 GiB
Duration : 1 h 16 min
Overall bit rate : 11.0 Mb/s
Encoded date : UTC 2018-03-10 01:19:33
Writing application : mkvmerge v9.3.1 ('Mask Machine') 64bit
Writing library : libebml v1.3.4 + libmatroska v1.4.5
Video
ID : 1
Format : AVC
Format/Info : Advanced Video Codec
Format profile : [email protected]
Format settings, CABAC : Yes
Format settings, ReFrames : 4 frames
Format settings, GOP : M=1, N=32
Codec ID : V_MPEG4/ISO/AVC
Duration : 1 h 16 min
Bit rate : 10.8 Mb/s
Width : 1 920 pixels
Height : 1 080 pixels
Display aspect ratio : 16:9
Frame rate mode : Constant
Frame rate : 25.000 FPS
Color space : YUV
Chroma subsampling : 4:2:0
Bit depth : 8 bits
Scan type : Interlaced
Scan type, store method : Separated fields
Scan order : Top Field First
Bits/(Pixel*Frame) : 0.209
Stream size : 5.76 GiB (98%)
Default : No
Forced : No
Color range : Limited
Color primaries : BT.709
Transfer characteristics : BT.709
Matrix coefficients : BT.709
Audio
ID : 2
Format : MPEG Audio
Format version : Version 1
Format profile : Layer 2
Codec ID : A_MPEG/L2
Codec ID/Hint : MP2
Duration : 1 h 16 min
Bit rate mode : Constant
Bit rate : 192 kb/s
Channel(s) : 2 channels
Sampling rate : 48.0 kHz
Frame rate : 41.666 FPS (1152 spf)
Compression mode : Lossy
Stream size : 105 MiB (2%)
Language : Russian
Default : Yes
Forced : No

Скриншоты




Display posts:    

Current time is: 21-Oct 17:00

All times are UTC ± 0


You cannot post new topics in this forum
You cannot reply to topics in this forum
You cannot edit your posts in this forum
You cannot delete your posts in this forum
You cannot vote in polls in this forum
You cannot attach files in this forum
You cannot download files in this forum

!ATTENTION!
The site does not give electronic versions of products, and is engaged only in a collecting and cataloguing of the references sent and published at a forum by our readers. If you are the legal owner of any submitted material and do not wish that the reference to it was in our catalogue, contact us and we shall immediately remove her. Files for an exchange on tracker are given by users of a site, and the administration does not bear the responsibility for their maintenance. The request to not fill in the files protected by copyrights, and also files of the illegal maintenance!