Ивановский Торрент трекер
Яндекс.Погода
 

[Quote]
HUNTER

Загадочный Мир Эль Супербисто / The Haunted World of El Superbeasto
Страна: США
Жанр: мультфильм для взрослых
Продолжительность: 01:17:32
Год выпуска: 2009
Перевод: Профессиональный (двухголосый закадровый)
Русские субтитры: нет
Режиссёр: Роб Зомби / Rob Zombie
Роли озвучивали: Том Папа / Tom Papa, Шери Мун Зомби / Sheri Moon Zombie, Пол Джиаматти / Paul Giamatti, Роб Полсен / Rob Paulsen, Брайан Позен / Brian Posehn, Розарио Доусон / Rosario Dawson, Дэнни Трехо / Danny Trejo
Описание: Комедийный мультфильм, пародирующий фильмы ужасов, снятый по мотивам комиксов, созданных Робом Зомби. Сюжет разворачивается в призрачном мире Монстрлэнд, и повествует о мексиканском рестлере по имени Эль Супербисто и его сексуальной подручной Сьюзи Икс, которые борются со злодеем по имени Доктор Сатана.
Доп. информация: Рип найден в Сети.

Cемпл: https://radikal.ru/video/xCNWSslmd93
Качество: HDRip
Формат: AVI
Видео: 1907 kbps, 720х400 (16:9), 23.976 fps, MPEG-4 Visual (XviD)
Аудио 1 (rus): 384 kbps, 48.0 kHz, 16 bits, 6 channels, AC-3
Аудио 2 (eng): 384 kbps, 48.0 kHz, 16 bits, 6 channels, AC-3
Субтитры: отсутствуют

Подробные технические данные

General
Complete name : The Haunted World of El Superbeasto (2009).avi
Format : AVI
Format/Info : Audio Video Interleave
File size : 1.46 GiB
Duration : 1h 17mn
Overall bit rate : 2 689 Kbps
Movie name : Prizrochniy.mir.El`.Superbisto.2009.DUAL.BDRip.Xvid.AC3.-HQCLUB
Director : Orbit
Writing application : VirtualDubMod 1.5.10.2 (build 2542/release)
Copyright : hqclub.net
Comment : 09.03.2010
Video
ID : 0
Format : MPEG-4 Visual
Format profile : Advanced [email protected]
Format settings, BVOP : 1
Format settings, QPel : No
Format settings, GMC : No warppoints
Format settings, Matrix : Default (MPEG)
Codec ID : XVID
Codec ID/Hint : XviD
Duration : 1h 17mn
Bit rate : 1 907 Kbps
Width : 720 pixels
Height : 400 pixels
Display aspect ratio : 16:9
Frame rate : 23.976 fps
Color space : YUV
Chroma subsampling : 4:2:0
Bit depth : 8 bits
Scan type : Progressive
Compression mode : Lossy
Bits/(Pixel*Frame) : 0.276
Stream size : 1.03 GiB (71%)
Writing library : XviD 1.2.1 (UTC 2008-12-04)
Audio #1
ID : 1
Format : AC-3
Format/Info : Audio Coding 3
Mode extension : CM (complete main)
Format settings, Endianness : Big
Codec ID : 2000
Duration : 1h 17mn
Bit rate mode : Constant
Bit rate : 384 Kbps
Channel(s) : 6 channels
Channel positions : Front: L C R, Side: L R, LFE
Sampling rate : 48.0 KHz
Bit depth : 16 bits
Compression mode : Lossy
Stream size : 213 MiB (14%)
Alignment : Split accross interleaves
Interleave, duration : 42 ms (1.00 video frame)
Interleave, preload duration : 500 ms
Audio #2
ID : 2
Format : AC-3
Format/Info : Audio Coding 3
Mode extension : CM (complete main)
Format settings, Endianness : Big
Codec ID : 2000
Duration : 1h 17mn
Bit rate mode : Constant
Bit rate : 384 Kbps
Channel(s) : 6 channels
Channel positions : Front: L C R, Side: L R, LFE
Sampling rate : 48.0 KHz
Bit depth : 16 bits
Compression mode : Lossy
Stream size : 213 MiB (14%)
Alignment : Split accross interleaves
Interleave, duration : 42 ms (1.00 video frame)
Interleave, preload duration : 500 ms

Скриншоты



Display posts:    

Current time is: 16-Oct 11:18

All times are UTC ± 0


You cannot post new topics in this forum
You cannot reply to topics in this forum
You cannot edit your posts in this forum
You cannot delete your posts in this forum
You cannot vote in polls in this forum
You cannot attach files in this forum
You cannot download files in this forum

!ATTENTION!
The site does not give electronic versions of products, and is engaged only in a collecting and cataloguing of the references sent and published at a forum by our readers. If you are the legal owner of any submitted material and do not wish that the reference to it was in our catalogue, contact us and we shall immediately remove her. Files for an exchange on tracker are given by users of a site, and the administration does not bear the responsibility for their maintenance. The request to not fill in the files protected by copyrights, and also files of the illegal maintenance!