Российский Торрент трекер
Яндекс.Погода
 

[Quote]
HUNTER

Возвращение на планету обезьян / Return to the Planet of the Apes- Страна: США
Жанр: Фантастика, приключение, постапокалиптика
Продолжительность серии: ~00:25:00
Год выпуска: 1975
Перевод: Субтитры
Режиссёр: Даг Вайлди
Роли озвучивали: Остин Стокер, Филиппа Харрис, Генри Корден, Ричард Блэкберн, Эдвин Миллс, Клодетт Невинс, Том Уильямс, Ричард Блэкберн-Субтитры :
Русские (в составе контейнера) от Флюксус-Описание: В 3979 году космический корабль землян терпит крушение на далекой планете. Выжившие в катастрофе астронавты удивляются, как она похожа на их дом. Вскоре они узнают, что планета населена разумными обезьянами и деградировавшими до животного состояния людьми.
Качество: DVDRemux
Формат: MKV
Видео: MPEG2, 720x480 (4:3), 29.97fps, ~5 966 kbps
Аудио: 48 kHz, AC3, 2/0 (L,R), 192 kbps
Субтитры 1:SRT, Язык: Русский (в составе контейнера). Перевод: Флюксус
Субтитры 2:SRT, Язык: Английский (в составе контейнера)

Подробные технические данные

General
Unique ID : 221287152279652303066429717559088622133 (0xA67A5AF42D7DE8108102C50E6A61AA35)
Complete name : D:\Торренты\Return to the Planet of the Apes [1975][CultFilms]\01 Flames of Doom .mkv
Format : Matroska
Format version : Version 4
File size : 1.05 GiB
Duration : 24 min 23 s
Overall bit rate mode : Variable
Overall bit rate : 6 162 kb/s
Movie name : Return to the Planet of the Apes [1975] [CultFilms]
Encoded date : UTC 2021-07-05 13:52:29
Writing application : mkvmerge v8.3.0 ('Over the Horizon') 64bit
Writing library : libebml v1.3.1 + libmatroska v1.4.2
Video
ID : 1
Format : MPEG Video
Format version : Version 2
Format profile : [email protected]
Format settings : CustomMatrix / BVOP
Format settings, BVOP : Yes
Format settings, Matrix : Custom
Format settings, GOP : M=3, N=12
Format settings, picture structure : Frame
Codec ID : V_MPEG2
Codec ID/Info : MPEG 1 or 2 Video
Duration : 24 min 23 s
Bit rate mode : Variable
Bit rate : 5 966 kb/s
Maximum bit rate : 9 800 kb/s
Width : 720 pixels
Height : 480 pixels
Display aspect ratio : 4:3
Frame rate mode : Variable
Frame rate : 24.080 FPS
Original frame rate : 29.970 (30000/1001) FPS
Color space : YUV
Chroma subsampling : 4:2:0
Bit depth : 8 bits
Scan type : Interlaced
Scan order : Top Field First
Compression mode : Lossy
Bits/(Pixel*Frame) : 0.717
Stream size : 1.02 GiB (97%)
Language : English
Default : No
Forced : No
Audio
ID : 2
Format : AC-3
Format/Info : Audio Coding 3
Commercial name : Dolby Digital
Codec ID : A_AC3
Duration : 24 min 23 s
Bit rate mode : Constant
Bit rate : 192 kb/s
Channel(s) : 2 channels
Channel layout : L R
Sampling rate : 48.0 kHz
Frame rate : 31.250 FPS (1536 SPF)
Compression mode : Lossy
Stream size : 33.5 MiB (3%)
Title : Stereo
Language : English
Service kind : Complete Main
Default : Yes
Forced : No
Menu
00:00:00.000 : en:Chapter 01
00:01:12.038 : en:Chapter 02
00:02:35.121 : en:Chapter 03
00:04:42.915 : en:Chapter 04
00:16:13.973 : en:Chapter 05

Список серий

01 Flames of Doom
02 Escape from Ape City
03 The Unearthly Prophecy
04 Tunnel of Fear
05 Lagoon of Peril
06 Terror on Ice Mountain
07 River of Flames
08 Screaming Wings
09 Trail of the Unknown
10 Attack From the Clouds
11 Mission of Mercy
12 Invasion of the Underdwellers
13 Battle of the Titans

Информация о серии

01. Планета Обезьян (1968)
02. Планета обезьян 2: Под планетой обезьян (1970)
03. Планета обезьян 3: Бегство с планеты обезьян (1971)
04. Планета обезьян 4: Покорение планеты обезьян (1972)
05. Планета обезьян 5: Битва за планету обезьян (1973)
06. Планета обезьян (1974, сериал)
07. Возвращение на планету обезьян (1975, мультсериал)
08. Назад на планету обезьян (1981)
09. Прощание с планетой обезьян (1981)
10. По ту сторону планеты обезьян (1998)
11. Планета обезьян (2001)
12. Восстание планеты обезьян (2011)
13. Планета обезьян: Революция (2014)
14. Война планеты обезьян (2017)

Скриншоты



Display posts:    

Current time is: 03-Dec 00:21

All times are UTC ± 0


You cannot post new topics in this forum
You cannot reply to topics in this forum
You cannot edit your posts in this forum
You cannot delete your posts in this forum
You cannot vote in polls in this forum
You cannot attach files in this forum
You cannot download files in this forum

!ATTENTION!
The site does not give electronic versions of products, and is engaged only in a collecting and cataloguing of the references sent and published at a forum by our readers. If you are the legal owner of any submitted material and do not wish that the reference to it was in our catalogue, contact us and we shall immediately remove her. Files for an exchange on tracker are given by users of a site, and the administration does not bear the responsibility for their maintenance. The request to not fill in the files protected by copyrights, and also files of the illegal maintenance!