Ивановский Торрент трекер
Яндекс.Погода
 

[Quote]
HUNTER

Воскресение Христа / Восставший / Risen«Witness the manhunt that changed the course of human history»- Страна: США
Студии: Sony / Columbia, Liddell Entertainment, Affirm Films
Жанр: Боевик, драма, детектив, приключения
Год выпуска: 2016-Дата мировой премьеры: 19 февраля 2016-Продолжительность: 01:43:13
Перевод: Профессиональный (многоголосый закадровый) [Лицензия]
Субтитры: Английские, арабские, болгарские, хорватские, чешские, эстонские, иврит, венгерские, исландские, польские, португальские, румынские, русские, сербские, словацкие, словенские, турецкие
Оригинальная аудиодорожка: английская-Режиссер: Кевин Рейнольдс / Kevin Reynolds
Продюсеры: Патрик Айелло, Мики Лиделл, Пит Шилеймон
Актеры: Джозеф Файнс, Том Фелтон, Питер Фёрт, Клифф Кёртис, Мария Ботто, Луис Кальехо, Антонио Хиль-Мартинес, Ричард Этуилл, Стюарт Скудамор, Энди Гэтергуд-Описание:
33 год н. э. Римскому трибуну в Иудее дано задание найти пропавшее тело распятого накануне еврея, который, судя по слухам, воскрес.- -Качество: DVD5 (сжатый)
Формат: DVD-Video
Видео: MPEG-2, [email protected] (PAL 16:9), ~5100 Кбит/сек
Аудио 1: AC3 5.1, 448 Кбит/сек [Английский - оригинал]
Аудио 2: AC3 5.1, 384 Кбит/сек [Русский - многоголосый закадровый]

DVDInfo

Title: Risen (2016) DVD5
Size: 4.37 Gb ( 4 578 050 KBytes ) - DVD-5
Enabled regions: 1, 2, 3, 4, 5, 6, 7, 8
VTS_01 :
Play Length: 01:43:13
Video: PAL 16:9 (720x576) VBR, Auto Pan&Scan
Audio:
English (Dolby AC3, 6 ch)
Russian (Dolby AC3, 6 ch)
Subtitles:
English
Arabic
Bulgarian
Hrvatski
Czech(Ceske)
Estonian
Hebrew
Magyar
Islenska
Polish
Portugues
Romanian
Russian
Serbian
Slovak
Slovenian
Turkish
English
Menu Video:
PAL 16:9 (720x576) VBR
Auto Letterboxed
Menu Subtitles:
Not specified
Menu English Language Unit :
Root Menu
Chapter (PTT) Menu

MediaInfo

Общее
Полное имя : V:\Torrents\Risen (2016) DVD5\VIDEO_TS\VTS_01_1.VOB
Формат : MPEG-PS
Размер файла : 1024 Мбайт
Продолжительность : 23 м. 26 с.
Режим общего битрейта : Переменный
Общий поток : 6105 Кбит/сек
Видео
Идентификатор : 224 (0xE0)
Формат : MPEG Video
Версия формата : Version 2
Профиль формата : [email protected]
Настройки формата : CustomMatrix / BVOP
Параметр BVOP формата : Да
Параметр матрицы формата : Выборочная
Параметр GOP формата : Variable
Продолжительность : 23 м. 26 с.
Вид битрейта : Переменный
Битрейт : 5152 Кбит/сек
Максимальный битрейт : 9800 Кбит/сек
Ширина : 720 пикселей
Высота : 576 пикселей
Соотношение сторон : 16:9
Частота кадров : 25,000 кадров/сек
Стандарт вещания : PAL
Цветовое пространство : YUV
Субдискретизация насыщенности : 4:2:0
Битовая глубина : 8 бит
Тип развёртки : Прогрессивная
Порядок развёртки : Верхнее поле первое
Метод сжатия : С потерями
Бит/(Пиксели*Кадры) : 0.497
Временной код первого кадра : 00:59:58:00
Оригинал временного кода : Group of pictures header
Размер потока : 864 Мбайт (84%)
Аудио #1
Идентификатор : 189 (0xBD)-128 (0x80)
Формат : AC-3
Формат/Информация : Audio Coding 3
Параметр Endianness формата : Big
Режим смешивания : DVD-Video
Продолжительность : 23 м. 26 с.
Вид битрейта : Постоянный
Битрейт : 448 Кбит/сек
Каналы : 6 каналов
Расположение каналов : Front: L C R, Side: L R, LFE
Частота : 48,0 КГц
Частота кадров : 31,250 кадров/сек (1536 SPF)
Битовая глубина : 16 бит
Метод сжатия : С потерями
Размер потока : 75,1 Мбайт (7%)
ServiceKind/String : Complete Main
Аудио #2
Идентификатор : 189 (0xBD)-132 (0x84)
Формат : AC-3
Формат/Информация : Audio Coding 3
Параметр Endianness формата : Big
Режим смешивания : DVD-Video
Продолжительность : 23 м. 26 с.
Вид битрейта : Постоянный
Битрейт : 384 Кбит/сек
Каналы : 6 каналов
Расположение каналов : Front: L C R, Side: L R, LFE
Частота : 48,0 КГц
Частота кадров : 31,250 кадров/сек (1536 SPF)
Битовая глубина : 16 бит
Метод сжатия : С потерями
Размер потока : 64,4 Мбайт (6%)
ServiceKind/String : Complete Main
Текст
Идентификатор : 189 (0xBD)-49 (0x31)
Формат : RLE
Формат/Информация : Run-length encoding
Режим смешивания : DVD-Video
Продолжительность : 23 м. 7 с.
Задержка видео : 17 с. 280 мс.
Меню

Доп. информация

Исходник: http://rutracker.org/forum/viewtopic.php?t=5523131 R2
Удалены: предупреждающие надписи, чешская, венгерская, польская, турецкая и английская (2.0) звуковая дорожка (в меню кнопки затёрты).
Команды диска переписаны заново, оставлен один VTS.
Видео диска не сжималось!
Меню: статичное, недействующие кнопки затерты и закрыты.
Обработка и сжатие: DVD ReMake Pro + Работа с меню (Adobe PhotoShop и MuxMan).
-

Скриншоты меню

Скриншоты фильма

Раздаю с 10:00 до 23:00 до 10 скачавших.


Display posts:    

Current time is: 16-Oct 12:13

All times are UTC ± 0


You cannot post new topics in this forum
You cannot reply to topics in this forum
You cannot edit your posts in this forum
You cannot delete your posts in this forum
You cannot vote in polls in this forum
You cannot attach files in this forum
You cannot download files in this forum

!ATTENTION!
The site does not give electronic versions of products, and is engaged only in a collecting and cataloguing of the references sent and published at a forum by our readers. If you are the legal owner of any submitted material and do not wish that the reference to it was in our catalogue, contact us and we shall immediately remove her. Files for an exchange on tracker are given by users of a site, and the administration does not bear the responsibility for their maintenance. The request to not fill in the files protected by copyrights, and also files of the illegal maintenance!