Ивановский Торрент трекер
Яндекс.Погода
 

[Quote]
HUNTER

Война волков / Wolf Warrior
Год выпуска: 2015
Страна: Китай(Chunqiu Time Co.)
Жанр: Боевик, драма, военный
Продолжительность: 01:30:03
Перевод: Одноголосый закадровый
Русские субтитры: нет
Режиссер на русском: Джеки Ву / Jacky Wu
В ролях: Джеки Ву, Скотт Эдкинс, Кевин Ли, Кайл Шапиро, Кристофер Коллинз, Цзыи Ден, Сона Эямбе, Сэмюэл Тивирдж, Ю Нан, Вэньчжо Чжао
Описание: Своенравное поведение командира Лэн Фэна, офицера спецназа, часто вызывает недовольство у вышестоящего начальства. Во время штурма тайного убежища наркоторговцев Фэн нарушает прямой приказ и спасает положение, метким выстрелом убивая наркобарона. После отбывания срока за неподчинение приказам и неповиновение, Фэна, благодаря его навыкам и храбрости, принимают в китайский элитный отряд под названием «Wolf Warrior». Пройдя вместе со своими подчинёнными ряд суровых занятий и тренировок, он, в итоге, собирает команду, которую может назвать своей собственной. Но дело принимает плохой оборот, когда во время финальной стадии учений они попадают в засаду, устроенную высококвалифицированными иностранными наёмниками во главе с Томом, поклявшимся отомстить Лэн Фэну и его людям за убийство своего бывшего работодателя. Линия фронта очерчена, и отступать или сдаваться не собирается ни одна из сторон.
Сэмпл: http://sendfile.su/1401360
Качество: BDrip
Контейнер: MKV
Формат 3D: OverUnder / Вертикальная стереопара
Порядок ракурсов: левый ракурс первый
Видео кодек: x264
Аудио кодек: AC3
Видео: AVC / [email protected] / 23,976 fps / 1920х2160 / 15,7 Мбит/сек
Аудио: Русский / AC3 / 48 KHz / 2.0 ch / 192 Кбит/сек
ВНИМАНИЕ ! На встроенных ТВ-плеерах работать не будет!!!
ТВ Samsung в названии которого есть надпись Ultra HD , и LG Ultra HD 800 серии, LG C6P, Xiaomi Mi TV 2 воспроизводят полные стереопары встроенными плеерами
Железные плееры на которых воспроизводятся полные стереопары:Popcorn C-200 , Dune HD Smart D1 , Dune HD DUO , Dune HD Smart H1 , Dune HD Smart B1 , Dune HD Max , Dune HD TV-303D, Dune HD TV-102, Dune HD Base 3D, Philips HMP7001, Aura HD, MECOOL BB2
Чтобы изображение было на весь экран в плеере выставляем, если рип 1920х1600 - то выставляем 2.35:1 , если 1920х2160 - то выставляем 16:9

MediaInfo

Общее
Уникальный идентификатор : 184608421267561489272460696125955852992 (0x8AE249E50034E4F8A9E66846ABDF4AC0)
Полное имя : E:\закачки\Wolf Warrior.Rip by SeRoGa00.mkv
Формат : Matroska
Версия формата : Version 2
Размер файла : 10,2 Гбайт
Продолжительность : 1 ч. 30 м.
Общий поток : 16,2 Мбит/сек
Дата кодирования : UTC 2018-02-24 05:32:48
Программа кодирования : mkvmerge v3.4.0 ('Rapunzel') сборка от May 15 2010 09:38:20
Библиотека кодирования : libebml v0.8.0 + libmatroska v0.9.0
Видео
Идентификатор : 1
Формат : AVC
Формат/Информация : Advanced Video Codec
Профиль формата : [email protected]
Параметр CABAC формата : Да
Параметр ReFrames формата : 4 кадра
Идентификатор кодека : V_MPEG4/ISO/AVC
Продолжительность : 1 ч. 30 м.
Битрейт : 15,7 Мбит/сек
Ширина : 1920 пикселей
Высота : 2160 пикселей
Соотношение сторон : 0,889
Частота кадров : 23,976 кадра/сек
Цветовое пространство : YUV
Субдискретизация насыщенности : 4:2:0
Битовая глубина : 8 бит
Тип развёртки : Прогрессивная
Бит/(Пиксели*Кадры) : 0.158
Размер потока : 9,89 Гбайт (97%)
Заголовок : Rip by SeRoGa00
Библиотека кодирования : x264 core 155 r2901 7d0ff22
Настройки программы : cabac=1 / ref=4 / deblock=1:-3:-3 / analyse=0x3:0x113 / me=umh / subme=10 / psy=1 / psy_rd=1.00:0.15 / mixed_ref=1 / me_range=24 / chroma_me=1 / trellis=2 / 8x8dct=1 / cqm=0 / deadzone=21,11 / fast_pskip=1 / chroma_qp_offset=-3 / threads=12 / lookahead_threads=6 / sliced_threads=0 / nr=0 / decimate=0 / interlaced=0 / bluray_compat=0 / constrained_intra=0 / bframes=10 / b_pyramid=2 / b_adapt=2 / b_bias=0 / direct=3 / weightb=1 / open_gop=0 / weightp=2 / keyint=250 / keyint_min=23 / scenecut=40 / intra_refresh=0 / rc_lookahead=60 / rc=crf / mbtree=1 / crf=18.0 / qcomp=0.60 / qpmin=10 / qpmax=69 / qpstep=4 / vbv_maxrate=40000 / vbv_bufsize=40000 / crf_max=0.0 / nal_hrd=none / filler=0 / ip_ratio=1.40 / aq=1:1.00
Язык : English
Default : Нет
Forced : Нет
Аудио
Идентификатор : 2
Формат : AC-3
Формат/Информация : Audio Coding 3
Расширение режима : CM (complete main)
Параметр Endianness формата : Big
Идентификатор кодека : A_AC3
Продолжительность : 1 ч. 30 м.
Вид битрейта : Постоянный
Битрейт : 192 Кбит/сек
Каналы : 2 канала
Расположение каналов : Front: L R
Частота : 48,0 КГц
Битовая глубина : 16 бит
Метод сжатия : С потерями
Размер потока : 124 Мбайт (1%)
Язык : Russian
Default : Да
Forced : Нет
Меню
00:00:00.000 : en:00:00:00.000
00:06:26.677 : en:00:06:26.677
00:11:18.259 : en:00:11:18.259
00:16:34.158 : en:00:16:34.158
00:22:01.278 : en:00:22:01.278
00:29:41.028 : en:00:29:41.028
00:37:21.989 : en:00:37:21.989
00:45:28.224 : en:00:45:28.224
00:52:36.610 : en:00:52:36.610
01:01:48.371 : en:01:01:48.371
01:09:52.645 : en:01:09:52.645
01:23:28.002 : en:01:23:28.002

Скриншоты




Display posts:    

Current time is: 22-Oct 01:26

All times are UTC ± 0


You cannot post new topics in this forum
You cannot reply to topics in this forum
You cannot edit your posts in this forum
You cannot delete your posts in this forum
You cannot vote in polls in this forum
You cannot attach files in this forum
You cannot download files in this forum

!ATTENTION!
The site does not give electronic versions of products, and is engaged only in a collecting and cataloguing of the references sent and published at a forum by our readers. If you are the legal owner of any submitted material and do not wish that the reference to it was in our catalogue, contact us and we shall immediately remove her. Files for an exchange on tracker are given by users of a site, and the administration does not bear the responsibility for their maintenance. The request to not fill in the files protected by copyrights, and also files of the illegal maintenance!