Веном 2 / Venom: Let There Be Carnage (Энди Серкис / Andy Serkis) [2021, США, Фантастика, боевик, триллер, BDRip] Dub (КиноПоиск HD) :: Российский Торрент трекер
Российский Торрент трекер
Яндекс.Погода
 

[Quote]
HUNTER

Веном 2 / Venom: Let There Be Carnage
Страна: США
Жанр: Фантастика, боевик, триллер
Год выпуска: 2021
Продолжительность: 01:37:33-Перевод: Профессиональный (дублированный) | КиноПоиск HD
Субтитры: нет
Оригинальная аудиодорожка: нет-Режиссер: Энди Серкис / Andy Serkis-В ролях: Том Харди, Вуди Харрельсон, Стивен Грэм, Мишель Уильямс, Наоми Харрис, Рейд Скотт, Шон Делани, Пегги Лу, Уилльям Барбо, Джесси Виннинг-Описание: Более чем через год после тех событий журналист Эдди Брок пытается приспособиться к жизни в качестве хозяина инопланетного симбиота Венома, который наделяет его сверхчеловеческими способностями. Брок пытается возродить свою карьеру и берет интервью у серийного убийцы Клетуса Касади, который по воле случая становится хозяином Карнажа и сбегает из тюрьмы после неудавшейся казни.- -Качество видео: BDRip | VENOM_LTB_CARNAGE_2021_RMX_BLUEBIRD
Формат видео: AVI
Видео: 720x384 (1.88:1), 23.976 fps, XviD build 73 ~1688 kbps avg, 0.25 bit/pixel
Аудио: 48 kHz, AC3 Dolby Digital, 3/2 (L,C,R,l,r) + LFE ch, ~448 kbps-[box]Сэмпл[/box]-

MediaInfo

Код:
Формат : AVI
Формат/Информация : Audio Video Interleave
Размер файла : 1,46 Гбайт
Продолжительность : 1 ч. 37 м.
Общий поток : 2 146 Кбит/сек
Название фильма : Веном 2_2021_BDRip
Программа кодирования : VirtualDubMod 1.5.10.3 | www.virtualdub-fr.org || (build 2550/release)
Авторское право : порошков
Видео
Идентификатор : 0
Формат : MPEG-4 Visual
Профиль формата : Advanced [email protected]
Настройки формата : BVOP1 / Custom Matrix
Параметр BVOP формата : 1
Параметр QPel формата : Нет
Параметр GMC формата : Без точки перехода
Параметр матрицы формата : Выборочная
Идентификатор кодека : XVID
Идентификатор кодека/Подсказка : XviD
Продолжительность : 1 ч. 37 м.
Битрейт : 1 688 Кбит/сек
Ширина : 720 пикселей
Высота : 384 пикселя
Соотношение сторон : 1,85:1
Частота кадров : 23,976 (24000/1001) кадра/сек
Цветовое пространство : YUV
Субдискретизация насыщенности : 4:2:0
Битовая глубина : 8 бит
Тип развёртки : Прогрессивная
Метод сжатия : С потерями
Бит/(Пиксели*Кадры) : 0.255
Размер потока : 1,15 Гбайт (79%)
Библиотека кодирования : XviD 73
Аудио
Идентификатор : 1
Формат : AC-3
Формат/Информация : Audio Coding 3
Коммерческое название : Dolby Digital
Идентификатор кодека : 2000
Продолжительность : 1 ч. 37 м.
Вид битрейта : Постоянный
Битрейт : 448 Кбит/сек
Каналы : 6 каналов
Channel layout : L R C LFE Ls Rs
Частота : 48,0 КГц
Частота кадров : 31,250 кадров/сек (1536 SPF)
Метод сжатия : С потерями
Размер потока : 312 Мбайт (21%)
Выравнивание : Разделение по промежуткам
Продолжительность промежутка : 42 мс. (1,00 видеокадр)
Время предзагрузки промежутка : 500 мс.
Service kind : Complete Main

Скриншоты




Display posts:    

Current time is: 29-Jan 08:17

All times are UTC ± 0


You cannot post new topics in this forum
You cannot reply to topics in this forum
You cannot edit your posts in this forum
You cannot delete your posts in this forum
You cannot vote in polls in this forum
You cannot attach files in this forum
You cannot download files in this forum

!ATTENTION!
The site does not give electronic versions of products, and is engaged only in a collecting and cataloguing of the references sent and published at a forum by our readers. If you are the legal owner of any submitted material and do not wish that the reference to it was in our catalogue, contact us and we shall immediately remove her. Files for an exchange on tracker are given by users of a site, and the administration does not bear the responsibility for their maintenance. The request to not fill in the files protected by copyrights, and also files of the illegal maintenance!