Ивановский Торрент трекер
Яндекс.Погода
 

[Quote]
HUNTER

Вампирский засос / Vampires Suck
Страна: США
Студия: Regency Enterprises
Жанр: ужасы, комедия, приключения
Год выпуска: 2010
Продолжительность: 01:18:47
Перевод: Профессиональный (дублированный)
Субтитры: русские, украинские
Оригинальная аудиодорожка: нет
Режиссер: Джейсон Фридберг, Аарон Зельцер / Jason Friedberg, Aaron Seltzer
В ролях: Дженн Проске, Мэтт Лантер, Дидрих Бадер, Крис Ригги, Кен Жонг, Аннелиза ван дер Пол, Дэвид ДеЛуис, Келси Форд, Дэйв Фоли, Джефф Вицке
Описание: Бекки, не вампир, разрывается между двумя парнями. Также девушка должна донести свой выбор до отца, который является настоящим тираном и считает ее ребенком. Тем временем у друзей Бекки происходят всякие романтические глупости, которые сплетаются в один клубок на выпускном.
Бонусы: Смотрите в кино и на DVD
Меню: есть, анимированное
Сэмпл
Тип релиза: DVD9
Контейнер: DVD-Video
Видео: PAL 16:9 (720x576(0.525)) MPEG Video, 25,000 кадр/сек, 5446 Кбит/сек
Аудио: Russian (Dolby AC-3, 6 ch) 384 Кбит/сек, 48.0 КГц
Аудио 2: Russian (DTS, 6 ch) 768 Кбит/сек, 48.0 КГц

DVDInfo

Title: VAMPIRES_SUCK
Disk size: 4.55 Gb ( 4 775 642,00 KBytes )
DVD Type: DVD-9
Enabled regions: 1,2,3,4,5,6,7,8
VTS_01:
Title Play Length: 01:18:47
Video: PAL 16:9 (720x576) VBR,Auto Letterboxed
Audio (2):
Russian (Dolby AC3, 6 ch)
Russian (DTS, 6 ch)
Subtitles (2):
Russian
Ukrainian
VTS_02:
Title Play Length: 00:00:27
Video: PAL 16:9 (720x576) VBR,Auto Letterboxed
Audio (1):
Russian (Dolby AC3, 6 ch)
Subtitles (0)
VTS_03:
Title Play Length: 00:02:04
Video: PAL 16:9 (720x576) VBR,Auto Letterboxed
Audio (1):
English (Dolby AC3, 2 ch)
Subtitles (2):
Russian
Ukrainian
VTS_04:
Title Play Length: 00:03:42
Video: PAL 16:9 (720x576) VBR,Auto Letterboxed
Audio (2):
Russian (Dolby AC3, 6 ch)
English (Dolby AC3, 6 ch)
Subtitles (2):
Russian
Ukrainian
VTS_05:
Title Play Length: 00:11:19
Video: PAL 16:9 (720x576) VBR,Auto Letterboxed
Audio (1):
Not specified (Dolby AC3, 6 ch)
Subtitles (2):
Russian
Ukrainian
VTS_06:
Title Play Length: 00:01:37
Video: PAL 4:3 (720x576) VBR
Audio (1):
Not specified (Dolby AC3, 6 ch)
Subtitles (2):
Russian
Ukrainian
* Menus Information *
VIDEO_TS Menu
Video:
PAL 16:9 (720x576) VBR
Auto Pan&Scan
Audio (0)
Language Unit :
Title Menu
VTS_01 Menu
Video:
PAL 16:9 (720x576) VBR
Auto Pan&Scan
Audio (1):
Not specified (Dolby AC3, 2 ch)
Language Unit :
Root Menu
VTS_02 Menu
Video:
PAL 16:9 (720x576) VBR
Auto Letterboxed
Audio (0)
Language Unit :
Root Menu
VTS_03 Menu
Video:
PAL 16:9 (720x576) VBR
Auto Letterboxed
Audio (0)
Language Unit :
Root Menu
VTS_04 Menu
Video:
PAL 16:9 (720x576) VBR
Auto Letterboxed
Audio (0)
Language Unit :
Root Menu
VTS_05 Menu
Video:
PAL 16:9 (720x576) VBR
Auto Letterboxed
Audio (0)
Language Unit :
Root Menu
VTS_06 Menu
Video:
PAL 4:3 (720x576) VBR
Audio (0)
Language Unit :
Root Menu

MediaInfo

Общее
Полное имя : VAMPIRES_SUCK\VIDEO_TS\VTS_01_1.VOB
Формат : MPEG-PS
Размер файла : 1024 Мбайт
Продолжительность : 21 м. 18 с.
Режим общего битрейта : Переменный
Общий поток : 6718 Кбит/сек
Видео
Идентификатор : 224 (0xE0)
Формат : MPEG Video
Версия формата : Version 2
Профиль формата : [email protected]
Настройки формата : CustomMatrix / BVOP
Параметр BVOP формата : Да
Параметр матрицы формата : Выборочная
Параметр GOP формата : M=3, N=15
Продолжительность : 21 м. 18 с.
Вид битрейта : Переменный
Битрейт : 5446 Кбит/сек
Максимальный битрейт : 7500 Кбит/сек
Ширина : 720 пикселей
Высота : 576 пикселей
Соотношение сторон : 16:9
Частота кадров : 25,000 кадров/сек
Стандарт вещания : PAL
Цветовое пространство : YUV
Субдискретизация насыщенности : 4:2:0
Битовая глубина : 8 бит
Тип развёртки : Прогрессивная
Порядок развёртки : Верхнее поле первое
Метод сжатия : С потерями
Бит/(Пиксели*Кадры) : 0.525
Временной код первого кадра : 00:59:59:00
Оригинал временного кода : Group of pictures header
GOP, открыто/закрыто : Открыто
GOP, открыто/закрыто на первом кадре : Закрыто
Размер потока : 830 Мбайт (81%)
Аудио #1
Идентификатор : 189 (0xBD)-128 (0x80)
Формат : AC-3
Формат/Информация : Audio Coding 3
Режим смешивания : DVD-Video
Продолжительность : 21 м. 18 с.
Вид битрейта : Постоянный
Битрейт : 384 Кбит/сек
Каналы : 6 каналов
Расположение каналов : Front: L C R, Side: L R, LFE
Частота : 48,0 КГц
Частота кадров : 31,250 кадров/сек (1536 SPF)
Битовая глубина : 16 бит
Метод сжатия : С потерями
Задержка видео : -16 мс.
Размер потока : 58,5 Мбайт (6%)
ServiceKind/String : Complete Main
Аудио #2
Идентификатор : 189 (0xBD)-137 (0x89)
Формат : DTS
Формат/Информация : Digital Theater Systems
Режим смешивания : DVD-Video
Продолжительность : 21 м. 18 с.
Вид битрейта : Постоянный
Битрейт : 755 Кбит/сек
Каналы : 6 каналов
Расположение каналов : Front: L C R, Side: L R, LFE
Частота : 48,0 КГц
Частота кадров : 93,750 кадра/сек (512 SPF)
Битовая глубина : 24 бит
Метод сжатия : С потерями
Задержка видео : -6 мс.
Размер потока : 115 Мбайт (11%)
Текст #1
Идентификатор : 189 (0xBD)-32 (0x20)
Формат : RLE
Формат/Информация : Run-length encoding
Режим смешивания : DVD-Video
Текст #2
Идентификатор : 189 (0xBD)-33 (0x21)
Формат : RLE
Формат/Информация : Run-length encoding
Режим смешивания : DVD-Video

Скриншоты меню

Скриншоты



Display posts:    

Current time is: 22-Oct 00:23

All times are UTC ± 0


You cannot post new topics in this forum
You cannot reply to topics in this forum
You cannot edit your posts in this forum
You cannot delete your posts in this forum
You cannot vote in polls in this forum
You cannot attach files in this forum
You cannot download files in this forum

!ATTENTION!
The site does not give electronic versions of products, and is engaged only in a collecting and cataloguing of the references sent and published at a forum by our readers. If you are the legal owner of any submitted material and do not wish that the reference to it was in our catalogue, contact us and we shall immediately remove her. Files for an exchange on tracker are given by users of a site, and the administration does not bear the responsibility for their maintenance. The request to not fill in the files protected by copyrights, and also files of the illegal maintenance!