Ивановский Торрент трекер
Яндекс.Погода
 

[Quote]
HUNTER

Вальс Мефистофеля / The Mephisto Waltz
Страна: США
Студия: Quinn Martin Productions (QM)
Жанр: Мистика, триллер, ужасы, детектив
Год выпуска: 1971
Продолжительность: 01:48:41
Перевод: Авторский (одноголосый закадровый) Андрей Гаврилов
Субтитры: английские, немецкие
Оригинальная аудиодорожка: Английский
Режиссер: Пол Уэндкос / Paul Wendkos
В ролях: Алан Алда, Жаклин Биссет, Барбара Паркинс, Брэдфорд Диллман, Уильям Уиндом, Кэтлин Уиддоуз, Памелин Фердин, Курд Юргенс, Курт Лоуэнс, Грегори Мортон, Джани Мишель, Лилиан Шовин, Най Диех, Альберто Морин, Берри Крёгер, Терренс Скаммелл, Леон Элтон, Джек Берл, Антуанетта Бауэр, Уолтер Брук, Фрэнк Кампанелла, Гарри Картер, Джордж ДеНорманд
Описание: Экранизация одноименного романа Фреда Мастарда Стюарта. Пишущий о музыке журналист Майлс Кларксон (Алан Альда) живёт вполне счастливой семейной жизнью с красавицей-супругой Полой (Жаклин Биссет) и милой дочкой. Однако весь привычный порядок вещей нарушается после его знакомства со смертельно больным пианистом Дунканом Илаем и его эксцентричной дочерью Роксаной. Дункан и Роксана просто очаровали Майлса, заставили его, давно забросившего карьеру пианиста, поверить в свои силы, поверить в то, что он может великолепно играть, и они забрали его тело. В ту ночь, когда умер Дункан Илай, Майлс стал другим. Поначалу Пола не понимала истиной причины изменений его привычек и поведения, но последующие трагические события открыли ей страшную правду: Дункан и Роксана - сатанисты, чьи души уже давно переходят из одного тела в другое.
Дополнительная информация:
Автор релиза -
Исходник для рипа - Blu Ray (UK) - The Mephisto Waltz (1971) BD25 1080p AVC
Сохранены главы с BD
Рекламы нет!


Сэмпл: https://yadi.sk/i/QwO4oFZ23TFCfq
Качество видео: BDRip 720p
Формат видео: MKV
Видео: MPEG-4, 1280x690 (1,85:1), 23.976 fps, 9660 kbps, 0.456 bit/pixel
Аудио 1: Русский AC3, 48000 Гц, 2ch, 192 kbps
Аудио 2: Английский DTS 1.0 / 48 kHz / 768 kbps / 24-bit
Аудио 3: Английский AC3, 48000 Гц, 2ch, 192 kbps - комментарии
Формат субтитров: softsub (SRT)

MediaInfo

---[Information] [10.03.2018 7:00:55] x264 [info]: frame I:878 Avg QP:17.86 size:110833
---[Information] [10.03.2018 7:00:55] x264 [info]: frame P:26267 Avg QP:19.05 size: 75074
---[Information] [10.03.2018 7:00:55] x264 [info]: frame B:129196 Avg QP:21.27 size: 44928
---[Information] [10.03.2018 7:00:55] x264 [info]: consecutive B-frames: 0.8% 0.5% 2.0% 9.7% 12.6% 35.5% 12.6% 7.6% 10.6% 8.1%
---[Information] [10.03.2018 7:00:55] x264 [info]: mb I I16..4: 0.8% 93.2% 6.0%
---[Information] [10.03.2018 7:00:55] x264 [info]: mb P I16..4: 0.1% 28.8% 1.1% P16..4: 21.6% 32.1% 14.7% 1.1% 0.0% skip: 0.4%
---[Information] [10.03.2018 7:00:55] x264 [info]: mb B I16..4: 0.0% 4.6% 0.2% B16..8: 45.6% 29.7% 9.0% direct: 7.3% skip: 3.7% L0:48.8% L1:41.5% BI: 9.8%
Общее
Уникальный идентификатор : 3069572077054719103751060688354069656 (0x24F2D96847DCAC173DEA976D8B6CC98)
Полное имя : D:\The.Mephisto.Waltz.1971.BDRip.720p-ylnian.mkv
Формат : Matroska
Версия формата : Version 4 / Version 2
Размер файла : 8,21 Гбайт
Продолжительность : 1 ч. 48 м.
Общий поток : 10,8 Мбит/сек
Название фильма : The.Mephisto.Waltz.1971.BDRip.720p-ylnian
Дата кодирования : UTC 2018-03-10 08:06:46
Программа кодирования : mkvmerge v21.0.0 ('Tardigrades Will Inherit The Earth') 64-bit
Библиотека кодирования : libebml v1.3.5 + libmatroska v1.4.8
Видео
Идентификатор : 1
Формат : AVC
Формат/Информация : Advanced Video Codec
Профиль формата : [email protected]
Настройки формата : CABAC / 9 Ref Frames
Параметр CABAC формата : Да
Параметр RefFrames формата : 9 кадров
Идентификатор кодека : V_MPEG4/ISO/AVC
Продолжительность : 1 ч. 48 м.
Битрейт : 9660 Кбит/сек
Ширина : 1280 пикселей
Высота : 690 пикселей
Соотношение сторон : 1,85:1
Режим частоты кадров : Постоянный
Частота кадров : 23,976 (24000/1001) кадра/сек
Цветовое пространство : YUV
Субдискретизация насыщенности : 4:2:0
Битовая глубина : 8 бит
Тип развёртки : Прогрессивная
Бит/(Пиксели*Кадры) : 0.456
Размер потока : 7,33 Гбайт (89%)
Заголовок : The.Mephisto.Waltz.1971.BDRip.720p-ylnian
Библиотека кодирования : x264 core 148 r2638 7599210
Настройки программы : cabac=1 / ref=9 / deblock=1:-3:-3 / analyse=0x3:0x133 / me=umh / subme=11 / psy=1 / psy_rd=1.05:0.00 / mixed_ref=1 / me_range=64 / chroma_me=1 / trellis=2 / 8x8dct=1 / cqm=0 / deadzone=21,11 / fast_pskip=0 / chroma_qp_offset=-4 / threads=12 / lookahead_threads=2 / sliced_threads=0 / nr=0 / decimate=1 / interlaced=0 / bluray_compat=0 / constrained_intra=0 / bframes=9 / b_pyramid=2 / b_adapt=2 / b_bias=0 / direct=2 / weightb=1 / open_gop=0 / weightp=2 / keyint=240 / keyint_min=23 / scenecut=40 / intra_refresh=0 / rc_lookahead=140 / rc=crf / mbtree=0 / crf=18.0 / qcomp=0.60 / qpmin=0 / qpmax=69 / qpstep=4 / vbv_maxrate=62500 / vbv_bufsize=78125 / crf_max=0.0 / nal_hrd=none / filler=0 / ip_ratio=1.40 / pb_ratio=1.30 / aq=2:0.80
Язык : English
Default : Да
Forced : Да
Аудио #1
Идентификатор : 2
Формат : AC-3
Формат/Информация : Audio Coding 3
Идентификатор кодека : A_AC3
Продолжительность : 1 ч. 48 м.
Вид битрейта : Постоянный
Битрейт : 192 Кбит/сек
Каналы : 2 канала
Расположение каналов : Front: L R
Частота : 48,0 КГц
Частота кадров : 31,250 кадров/сек (1536 SPF)
Битовая глубина : 16 бит
Метод сжатия : С потерями
Размер потока : 149 Мбайт (2%)
Заголовок : AVO - Gavrilov (AC3 2.0 192 kbps)
Язык : Russian
ServiceKind/String : Complete Main
Default : Да
Forced : Да
Аудио #2
Идентификатор : 3
Формат : DTS
Формат/Информация : Digital Theater Systems
Идентификатор кодека : A_DTS
Продолжительность : 1 ч. 48 м.
Вид битрейта : Постоянный
Битрейт : 768 Кбит/сек
Каналы : 1 канал
Расположение каналов : Front: C
Частота : 48,0 КГц
Частота кадров : 93,750 кадра/сек (512 SPF)
Битовая глубина : 24 бит
Метод сжатия : С потерями
Размер потока : 597 Мбайт (7%)
Заголовок : DTS 1.0 768 kbps
Язык : English
Default : Нет
Forced : Нет
Аудио #3
Идентификатор : 4
Формат : AC-3
Формат/Информация : Audio Coding 3
Идентификатор кодека : A_AC3
Продолжительность : 1 ч. 48 м.
Вид битрейта : Постоянный
Битрейт : 192 Кбит/сек
Каналы : 2 канала
Расположение каналов : Front: L R
Частота : 48,0 КГц
Частота кадров : 31,250 кадров/сек (1536 SPF)
Битовая глубина : 16 бит
Метод сжатия : С потерями
Размер потока : 149 Мбайт (2%)
Заголовок : Comm
Язык : English
ServiceKind/String : Complete Main
Default : Нет
Forced : Нет
Текст #1
Идентификатор : 5
Формат : UTF-8
Идентификатор кодека : S_TEXT/UTF8
Идентификатор кодека/Информация : UTF-8 Plain Text
Продолжительность : 1 ч. 44 м.
Битрейт : 36 бит/сек
ElementCount : 863
Размер потока : 28,4 Кбайт (0%)
Язык : English
Default : Нет
Forced : Нет
Текст #2
Идентификатор : 6
Формат : UTF-8
Идентификатор кодека : S_TEXT/UTF8
Идентификатор кодека/Информация : UTF-8 Plain Text
Продолжительность : 1 ч. 44 м.
Битрейт : 37 бит/сек
ElementCount : 873
Размер потока : 29,0 Кбайт (0%)
Язык : German
Default : Нет
Forced : Нет
Меню
00:00:00.000 : en:00:00:00.000
00:10:37.095 : en:00:10:37.095
00:19:27.625 : en:00:19:27.625
00:27:07.751 : en:00:27:07.751
00:40:07.739 : en:00:40:07.739
00:48:32.868 : en:00:48:32.868
00:55:25.989 : en:00:55:25.989
01:02:41.424 : en:01:02:41.424
01:12:29.887 : en:01:12:29.887
01:22:21.728 : en:01:22:21.728
01:31:54.134 : en:01:31:54.134
01:39:13.489 : en:01:39:13.489

Сравнение

Сравнение скриншотов с Исходником - http://screenshotcomparison.com/comparison/134182


Display posts:    

Current time is: 23-Oct 17:29

All times are UTC ± 0


You cannot post new topics in this forum
You cannot reply to topics in this forum
You cannot edit your posts in this forum
You cannot delete your posts in this forum
You cannot vote in polls in this forum
You cannot attach files in this forum
You cannot download files in this forum

!ATTENTION!
The site does not give electronic versions of products, and is engaged only in a collecting and cataloguing of the references sent and published at a forum by our readers. If you are the legal owner of any submitted material and do not wish that the reference to it was in our catalogue, contact us and we shall immediately remove her. Files for an exchange on tracker are given by users of a site, and the administration does not bear the responsibility for their maintenance. The request to not fill in the files protected by copyrights, and also files of the illegal maintenance!