Ивановский Торрент трекер
Яндекс.Погода
 

[Quote]
HUNTER

Убить за лайк / Tragedy Girls
Страна: США
Студия: Ardor Pictures, Dawn's Light, It's The Comeback Kids, New Artist Pictures
Жанр: ужасы, комедия
Год выпуска: 2017
Продолжительность: 01:38:19
Перевод: Профессиональный (дублированный) | iTunes
Субтитры: английские
Оригинальная аудиодорожка: английский
Режиссер: Тайлер МакИнтайр / Tyler MacIntyre
В ролях: Джош Хатчерсон, Брианна Хилдебранд, Кевин Дюран, Никки Уилан, Крэйг Робинсон, Александра Шипп, Розалинд Чао, Джек Куэйд, Остин Абрамс, Тимоти В. Мерфи
Описание: Две подружки-старшеклассницы одержимы мечтой стать звездами социальных сетей. Но, как известно, хорошими делами прославиться нельзя. Поэтому они заводят блог «Кошмарные девчонки», в котором смачно комментируют трагедии и несчастные случаи, происходящие в их городке. Количество подписчиков растет, но для новых лайков требуются новые кровавые репортажи. Амбициозные девушки, ощущая острую нехватку материала, принимаются убивать всех, кто мешает им по жизни, совмещая «приятное» с «полезным».
| IMDB | КиноПоиск | Сэмпл |
Тип релиза: BDRip 1080p
Контейнер: MKV
Видео: MPEG-4 AVC Video 9163 Kbps 1920x808 / 23,976 fps
Аудио: Dolby Digital Audio Russian 384 kbps 5.1 / 48 kHz
Аудио 2: Dolby Digital Audio English 384 kbps 5.1 / 48 kHz
Формат субтитров: softsub (SRT)
Дополнительно: Сохранены оригинальные чаптеры

MediaInfo

Формат : Matroska
Версия формата : Version 4 / Version 2
Размер файла : 6,81 Гбайт
Продолжительность : 1 ч. 38 м.
Общий поток : 9922 Кбит/сек
Дата кодирования : UTC 2018-02-17 21:38:05
Программа кодирования : mkvmerge v6.0.0 ('Coming Up For Air') built on Jan 20 2013 09:52:00
Библиотека кодирования : libebml v1.3.0 + libmatroska v1.4.0
Видео
Идентификатор : 1
Формат : AVC
Формат/Информация : Advanced Video Codec
Профиль формата : [email protected]
Настройки формата : CABAC / 5 Ref Frames
Параметр CABAC формата : Да
Параметр RefFrames формата : 5 кадров
Идентификатор кодека : V_MPEG4/ISO/AVC
Продолжительность : 1 ч. 38 м.
Битрейт : 9163 Кбит/сек
Ширина : 1920 пикселей
Высота : 808 пикселей
Соотношение сторон : 2,40:1
Режим частоты кадров : Постоянный
Частота кадров : 23,976 (24000/1001) кадра/сек
Цветовое пространство : YUV
Субдискретизация насыщенности : 4:2:0
Битовая глубина : 8 бит
Тип развёртки : Прогрессивная
Бит/(Пиксели*Кадры) : 0.246
Размер потока : 6,15 Гбайт (90%)
Заголовок : Tragedy.Girls.2017.BDRip 1080p
Библиотека кодирования : x264 core 155 r2901 7d0ff22
Настройки программы : cabac=1 / ref=5 / deblock=1:-3:-3 / analyse=0x3:0x113 / me=umh / subme=8 / psy=1 / psy_rd=1.00:0.00 / mixed_ref=1 / me_range=32 / chroma_me=1 / trellis=2 / 8x8dct=1 / cqm=0 / deadzone=21,11 / fast_pskip=1 / chroma_qp_offset=-2 / threads=24 / lookahead_threads=4 / sliced_threads=0 / nr=0 / decimate=1 / interlaced=0 / bluray_compat=0 / constrained_intra=0 / bframes=3 / b_pyramid=2 / b_adapt=2 / b_bias=0 / direct=3 / weightb=1 / open_gop=0 / weightp=2 / keyint=240 / keyint_min=24 / scenecut=40 / intra_refresh=0 / rc_lookahead=50 / rc=2pass / mbtree=1 / bitrate=9163 / ratetol=1.0 / qcomp=0.60 / qpmin=0 / qpmax=69 / qpstep=4 / cplxblur=20.0 / qblur=0.5 / ip_ratio=1.40 / aq=3:0.80
Default : Да
Forced : Нет
Аудио #1
Идентификатор : 2
Формат : AC-3
Формат/Информация : Audio Coding 3
Идентификатор кодека : A_AC3
Продолжительность : 1 ч. 38 м.
Вид битрейта : Постоянный
Битрейт : 384 Кбит/сек
Каналы : 6 каналов
Расположение каналов : Front: L C R, Side: L R, LFE
Частота : 48,0 КГц
Частота кадров : 31,250 кадров/сек (1536 SPF)
Битовая глубина : 16 бит
Метод сжатия : С потерями
Размер потока : 270 Мбайт (4%)
Заголовок : Dub (iTunes)
Язык : Russian
ServiceKind/String : Complete Main
Default : Да
Forced : Да
Аудио #2
Идентификатор : 3
Формат : AC-3
Формат/Информация : Audio Coding 3
Идентификатор кодека : A_AC3
Продолжительность : 1 ч. 38 м.
Вид битрейта : Постоянный
Битрейт : 384 Кбит/сек
Каналы : 6 каналов
Расположение каналов : Front: L C R, Side: L R, LFE
Частота : 48,0 КГц
Частота кадров : 31,250 кадров/сек (1536 SPF)
Битовая глубина : 16 бит
Метод сжатия : С потерями
Размер потока : 270 Мбайт (4%)
Заголовок : Original
Язык : English
ServiceKind/String : Complete Main
Default : Нет
Forced : Нет
Statistics Tags Issue : no_variable_data 1970-01-01 00:00:00 / mkvmerge v6.0.0 ('Coming Up For Air') built on Jan 20 2013 09:52:00 2018-02-17 21:38:05
FromStats_BitRate : 384000
FromStats_Duration : 01:38:19.488000000
FromStats_FrameCount : 184359
FromStats_StreamSize : 283175424
Текст #1
Идентификатор : 4
Формат : UTF-8
Идентификатор кодека : S_TEXT/UTF8
Идентификатор кодека/Информация : UTF-8 Plain Text
Язык : English
Default : Нет
Forced : Нет
Statistics Tags Issue : no_variable_data 1970-01-01 00:00:00 / mkvmerge v6.0.0 ('Coming Up For Air') built on Jan 20 2013 09:52:00 2018-02-17 21:38:05
FromStats_BitRate : 72
FromStats_Duration : 01:38:02.210000000
FromStats_FrameCount : 1618
FromStats_StreamSize : 53619
Текст #2
Идентификатор : 5
Формат : UTF-8
Идентификатор кодека : S_TEXT/UTF8
Идентификатор кодека/Информация : UTF-8 Plain Text
Заголовок : SDH
Язык : English
Default : Нет
Forced : Нет
Statistics Tags Issue : no_variable_data 1970-01-01 00:00:00 / mkvmerge v6.0.0 ('Coming Up For Air') built on Jan 20 2013 09:52:00 2018-02-17 21:38:05
FromStats_BitRate : 83
FromStats_Duration : 01:38:14.555000000
FromStats_FrameCount : 2044
FromStats_StreamSize : 61416
Меню
00:00:00.000 : en:00:00:00.000
00:03:00.263 : en:00:03:00.263
00:06:00.527 : en:00:06:00.527
00:09:00.790 : en:00:09:00.790
00:12:01.054 : en:00:12:01.054
00:15:01.317 : en:00:15:01.317
00:18:01.581 : en:00:18:01.581
00:21:01.844 : en:00:21:01.844
00:24:02.107 : en:00:24:02.107
00:27:02.371 : en:00:27:02.371
00:30:02.634 : en:00:30:02.634
00:33:02.898 : en:00:33:02.898
00:36:03.161 : en:00:36:03.161
00:39:03.424 : en:00:39:03.424
00:42:03.688 : en:00:42:03.688
00:45:03.951 : en:00:45:03.951
00:48:04.215 : en:00:48:04.215
00:51:04.478 : en:00:51:04.478
00:54:04.742 : en:00:54:04.742
00:57:05.005 : en:00:57:05.005
01:00:05.268 : en:01:00:05.268
01:03:05.532 : en:01:03:05.532
01:06:05.795 : en:01:06:05.795
01:09:06.059 : en:01:09:06.059
01:12:06.322 : en:01:12:06.322
01:15:06.585 : en:01:15:06.585
01:18:06.849 : en:01:18:06.849
01:21:07.112 : en:01:21:07.112
01:24:07.376 : en:01:24:07.376
01:27:07.639 : en:01:27:07.639
01:30:07.903 : en:01:30:07.903
01:33:08.166 : en:01:33:08.166
01:36:08.429 : en:01:36:08.429

Скриншоты с названием

Скриншоты



Display posts:    

Current time is: 23-Oct 00:47

All times are UTC ± 0


You cannot post new topics in this forum
You cannot reply to topics in this forum
You cannot edit your posts in this forum
You cannot delete your posts in this forum
You cannot vote in polls in this forum
You cannot attach files in this forum
You cannot download files in this forum

!ATTENTION!
The site does not give electronic versions of products, and is engaged only in a collecting and cataloguing of the references sent and published at a forum by our readers. If you are the legal owner of any submitted material and do not wish that the reference to it was in our catalogue, contact us and we shall immediately remove her. Files for an exchange on tracker are given by users of a site, and the administration does not bear the responsibility for their maintenance. The request to not fill in the files protected by copyrights, and also files of the illegal maintenance!