Ивановский Торрент трекер
Яндекс.Погода
 

[Quote]
HUNTER

Убийство в Восточном экспрессе / Murder on the Orient Express
Страна: США, Великобритания, Мальта, Канада
Жанр: драма, криминал, детектив
Год выпуска: 2017
Продолжительность: 01:53:55
Перевод: Профессиональный (Дублированный) Лиценция
Перевод: Любительский (многоголосый, закадровый) «GreenРай Studio»
Субтитры: английские, русские (лиценция), русские (Nautay)
Оригинальная аудиодорожка: английский
Режиссер: Кеннет Брана / Kenneth Branagh
В ролях: Кеннет Брана, Пенелопа Крус, Уиллем Дефо, Джуди Денч, Джонни Депп, Джош Гад, Дерек Джекоби, Лесли Одом мл., Мишель Пфайффер, Дэйзи Ридли…
Описание: Путешествие на одном из самых роскошных поездов Европы неожиданно превращается в одну из самых стильных и захватывающих загадок в истории. Фильм рассказывает историю тринадцати пассажиров поезда, каждый из которых находится под подозрением. И только сыщик должен как можно быстрее разгадать головоломку, прежде чем преступник нанесет новый удар.
Сэмпл:https://yadi.sk/i/Q3qM_lSM3T3A69

Тип релиза: BDRip 1080p
Контейнер: MKV
Видео: AVC / 1920x804 / 23.976 fps / 14,8 Mbps / [email protected]
Аудио 1: Rus DTS 5.1 / 48 kHz / 768 kbps / 24-bit
Аудио 2: Rus AC3 2.0 / 48 kHz / 192 kbps / 16-bit
Аудио 3: Eng DTS 5.1 / 48 kHz / 1510 kbps / 24-bit
Формат субтитров: softsub (SRT)

MediaInfo

Общее
Уникальный идентификатор : 272837950716338362345256683568973883362 (0xCD42AD8C7DE58ADEFF39A654EA6227E2)
Полное имя : C:\u_download\Murder.on.the.Orient.Express.2017.BDRip.1080p.2xRus.Eng.mkv
Формат : Matroska
Версия формата : Version 4 / Version 2
Размер файла : 13,8 Гбайт
Продолжительность : 1 ч. 53 м.
Общий поток : 17,3 Мбит/сек
Название фильма : Murder on the Orient Express (2017)
Дата кодирования : UTC 2018-03-05 11:16:01
Программа кодирования : mkvmerge v21.0.0 ('Tardigrades Will Inherit The Earth') 64-bit
Библиотека кодирования : libebml v1.3.5 + libmatroska v1.4.8
Видео
Идентификатор : 1
Формат : AVC
Формат/Информация : Advanced Video Codec
Профиль формата : [email protected]
Настройки формата : CABAC / 4 Ref Frames
Параметр CABAC формата : Да
Параметр RefFrames формата : 4 кадра
Идентификатор кодека : V_MPEG4/ISO/AVC
Продолжительность : 1 ч. 53 м.
Битрейт : 14,8 Мбит/сек
Ширина : 1920 пикселей
Высота : 804 пикселя
Соотношение сторон : 2,40:1
Режим частоты кадров : Постоянный
Частота кадров : 23,976 (24000/1001) кадра/сек
Цветовое пространство : YUV
Субдискретизация насыщенности : 4:2:0
Битовая глубина : 8 бит
Тип развёртки : Прогрессивная
Бит/(Пиксели*Кадры) : 0.401
Размер потока : 11,8 Гбайт (86%)
Библиотека кодирования : x264 core 152 r2851 ba24899
Настройки программы : cabac=1 / ref=4 / deblock=1:-3:-3 / analyse=0x3:0x133 / me=umh / subme=11 / psy=1 / psy_rd=1.00:0.15 / mixed_ref=1 / me_range=24 / chroma_me=1 / trellis=2 / 8x8dct=1 / cqm=0 / deadzone=21,11 / fast_pskip=0 / chroma_qp_offset=-3 / threads=8 / lookahead_threads=1 / sliced_threads=0 / nr=0 / decimate=1 / interlaced=0 / bluray_compat=0 / constrained_intra=0 / bframes=8 / b_pyramid=2 / b_adapt=2 / b_bias=0 / direct=1 / weightb=1 / open_gop=0 / weightp=2 / keyint=240 / keyint_min=23 / scenecut=40 / intra_refresh=0 / rc_lookahead=40 / rc=crf / mbtree=0 / crf=16.7 / qcomp=0.60 / qpmin=0 / qpmax=69 / qpstep=4 / vbv_maxrate=50000 / vbv_bufsize=62500 / crf_max=0.0 / nal_hrd=none / filler=0 / ip_ratio=1.40 / pb_ratio=1.30 / aq=2:0.80
Язык : English
Default : Да
Forced : Нет
Аудио #1
Идентификатор : 2
Формат : DTS
Формат/Информация : Digital Theater Systems
Идентификатор кодека : A_DTS
Продолжительность : 1 ч. 53 м.
Вид битрейта : Постоянный
Битрейт : 768 Кбит/сек
Каналы : 6 каналов
Расположение каналов : Front: L C R, Side: L R, LFE
Частота : 48,0 КГц
Частота кадров : 93,750 кадра/сек (512 SPF)
Битовая глубина : 24 бит
Метод сжатия : С потерями
Размер потока : 626 Мбайт (4%)
Заголовок : Dub
Язык : Russian
Default : Да
Forced : Нет
Аудио #2
Идентификатор : 3
Формат : AC-3
Формат/Информация : Audio Coding 3
Идентификатор кодека : A_AC3
Продолжительность : 1 ч. 53 м.
Вид битрейта : Постоянный
Битрейт : 192 Кбит/сек
Каналы : 2 канала
Расположение каналов : Front: L R
Частота : 48,0 КГц
Частота кадров : 31,250 кадров/сек (1536 SPF)
Битовая глубина : 16 бит
Метод сжатия : С потерями
Размер потока : 156 Мбайт (1%)
Заголовок : MVO GreenРай Studio
Язык : Russian
ServiceKind/String : Complete Main
Default : Нет
Forced : Нет
Аудио #3
Идентификатор : 4
Формат : DTS
Формат/Информация : Digital Theater Systems
Профиль формата : ES Matrix / Core
Идентификатор кодека : A_DTS
Продолжительность : 1 ч. 53 м.
Вид битрейта : Постоянный
Битрейт : 1509 Кбит/сек
Каналы : 7 каналов / 6 каналов
Расположение каналов : Front: L C R, Side: L R, Back: C, LFE / Front: L C R, Side: L R, LFE
Частота : 48,0 КГц
Частота кадров : 93,750 кадра/сек (512 SPF)
Битовая глубина : 24 бит
Метод сжатия : С потерями
Размер потока : 1,20 Гбайт (9%)
Язык : English
Default : Нет
Forced : Нет
Текст #1
Идентификатор : 5
Формат : UTF-8
Идентификатор кодека : S_TEXT/UTF8
Идентификатор кодека/Информация : UTF-8 Plain Text
Продолжительность : 1 ч. 53 м.
Битрейт : 1 бит/сек
ElementCount : 33
Размер потока : 1,34 Кбайт (0%)
Заголовок : forced
Язык : Russian
Default : Да
Forced : Нет
Текст #2
Идентификатор : 6
Формат : UTF-8
Идентификатор кодека : S_TEXT/UTF8
Идентификатор кодека/Информация : UTF-8 Plain Text
Продолжительность : 1 ч. 53 м.
Битрейт : 113 бит/сек
ElementCount : 1605
Размер потока : 93,6 Кбайт (0%)
Заголовок : full
Язык : Russian
Default : Нет
Forced : Нет
Текст #3
Идентификатор : 7
Формат : UTF-8
Идентификатор кодека : S_TEXT/UTF8
Идентификатор кодека/Информация : UTF-8 Plain Text
Продолжительность : 1 ч. 53 м.
Битрейт : 208 бит/сек
ElementCount : 2252
Размер потока : 174 Кбайт (0%)
Заголовок : comment
Язык : Russian
Default : Нет
Forced : Нет
Текст #4
Идентификатор : 8
Формат : UTF-8
Идентификатор кодека : S_TEXT/UTF8
Идентификатор кодека/Информация : UTF-8 Plain Text
Продолжительность : 1 ч. 33 м.
Битрейт : 1 бит/сек
ElementCount : 25
Размер потока : 961 байт (0%)
Заголовок : forced by Nautay
Язык : Russian
Default : Нет
Forced : Нет
Текст #5
Идентификатор : 9
Формат : UTF-8
Идентификатор кодека : S_TEXT/UTF8
Идентификатор кодека/Информация : UTF-8 Plain Text
Продолжительность : 1 ч. 44 м.
Битрейт : 125 бит/сек
ElementCount : 1844
Размер потока : 96,2 Кбайт (0%)
Заголовок : full by Nautay
Язык : Russian
Default : Нет
Forced : Нет
Текст #6
Идентификатор : 10
Формат : UTF-8
Идентификатор кодека : S_TEXT/UTF8
Идентификатор кодека/Информация : UTF-8 Plain Text
Продолжительность : 1 ч. 33 м.
Битрейт : 0 бит/сек
ElementCount : 25
Размер потока : 545 байт (0%)
Заголовок : forced
Язык : English
Default : Нет
Forced : Нет
Текст #7
Идентификатор : 11
Формат : UTF-8
Идентификатор кодека : S_TEXT/UTF8
Идентификатор кодека/Информация : UTF-8 Plain Text
Продолжительность : 1 ч. 45 м.
Битрейт : 74 бит/сек
ElementCount : 1977
Размер потока : 57,5 Кбайт (0%)
Заголовок : full
Язык : English
Default : Нет
Forced : Нет
Текст #8
Идентификатор : 12
Формат : UTF-8
Идентификатор кодека : S_TEXT/UTF8
Идентификатор кодека/Информация : UTF-8 Plain Text
Продолжительность : 1 ч. 53 м.
Битрейт : 129 бит/сек
ElementCount : 2283
Размер потока : 108 Кбайт (0%)
Заголовок : comment
Язык : English
Default : Нет
Forced : Нет
Меню
00:00:00.000 : en:Chapter 01
00:03:06.144 : en:Chapter 02
00:06:42.193 : en:Chapter 03
00:11:44.746 : en:Chapter 04
00:18:26.188 : en:Chapter 05
00:24:53.659 : en:Chapter 06
00:33:14.159 : en:Chapter 07
00:37:47.515 : en:Chapter 08
00:43:16.511 : en:Chapter 09
00:46:24.865 : en:Chapter 10
00:51:23.580 : en:Chapter 11
00:55:52.015 : en:Chapter 12
01:00:03.183 : en:Chapter 13
01:05:39.227 : en:Chapter 14
01:10:40.153 : en:Chapter 15
01:14:17.578 : en:Chapter 16
01:18:05.055 : en:Chapter 17
01:21:12.284 : en:Chapter 18
01:24:39.366 : en:Chapter 19
01:28:37.854 : en:Chapter 20
01:32:28.376 : en:Chapter 21
01:37:04.652 : en:Chapter 22
01:40:30.024 : en:Chapter 23
01:46:49.903 : en:Chapter 24

x264, md5

x264:
---[Information] [15.02.2018 11:44:11] x264 [info]: profile High, level 4.1
---[Information] [15.02.2018 23:39:29] x264 [info]: frame I:1060 Avg QP:14.71 size:305935
---[Information] [15.02.2018 23:39:29] x264 [info]: frame P:30478 Avg QP:15.80 size:127320
---[Information] [15.02.2018 23:39:29] x264 [info]: frame B:132361 Avg QP:18.08 size: 63990
---[Information] [15.02.2018 23:39:29] x264 [info]: consecutive B-frames: 1.0% 1.0% 3.8% 9.9% 12.1% 58.8% 7.5% 2.2% 3.7%
BDRip: file hash md5:6CA7AC7B6D293929710E7131D7A565AB
Sample: file hash md5:B4C21DFE08F076A01CA5BE592142F87B

Скриншоты

BDRip: Original:
[box]

[/box]

[box]

[/box]

[box]

[/box]

[box]

[/box]

[box]

[/box]

[box]

[/box]


Display posts:    

Current time is: 22-Oct 00:35

All times are UTC ± 0


You cannot post new topics in this forum
You cannot reply to topics in this forum
You cannot edit your posts in this forum
You cannot delete your posts in this forum
You cannot vote in polls in this forum
You cannot attach files in this forum
You cannot download files in this forum

!ATTENTION!
The site does not give electronic versions of products, and is engaged only in a collecting and cataloguing of the references sent and published at a forum by our readers. If you are the legal owner of any submitted material and do not wish that the reference to it was in our catalogue, contact us and we shall immediately remove her. Files for an exchange on tracker are given by users of a site, and the administration does not bear the responsibility for their maintenance. The request to not fill in the files protected by copyrights, and also files of the illegal maintenance!