Тусовщик Кунмин / Paripi Koumei / Ya Boy Kongming! / Party People Koumei [TV] [1-6 из 12] [Без хардсаба] [JAP+Sub] [2022, комедия, повседневность, музыка, WEBRip] [1080p] :: Российский Торрент трекер
Российский Торрент трекер
Яндекс.Погода
 

[Quote]
HUNTER

Тусовщик Кунмин / Paripi Koumei / Ya Boy Kongming!- Продолжительность: 12 эп. по 24 мин.
Год выпуска: 2022
Страна: Япония
Тип: TV
Жанр: комедия, повседневность, музыка
Режиссёр: Осаму Хомма
Студия: P.A. Works-Описание:
Властитель трёх королевств Чжугэ Кунмин всю жизнь провёл, участвуя во всевозможных сражениях, по полной используя свой непревзойденный талант стратега. А так как жизнь он прожил довольно долгую, то все эти битвы, интриги и коварные расчёты в попытке переиграть противника успели ему чертовски надоесть. Так что вполне логично, что всё, чего он желал на смертном одре — чтобы его следующее воплощение состоялось в каком-то спокойном мире без войн, и его мечта сбылась! Не успел Кунмин испустить дух, как тут же оказался в современном Токио, где день и ночь царит веселье! Сможет ли великий стратег адаптироваться к дикому ритму жизни современных тусовщиков?!-Информационные ссылки: AniDB || World Art-Качество: WEBRip
Рип: [NanDesuKa]
Формат видео: MKV
Наличие линковки: нет
Тип релиза: Без хардсаба
Видео: H264/AVC, 8 bit, 1920x1080, 23.976 fps, 5 827 Кбит/сек
Аудио: JAP: AAC, 48,0 KHz, 2ch, 315 Kbps (в составе контейнера)
Субтитры: RUS: ASS (в составе контейнера)
Субтитры: ENG: ASS (в составе контейнера)-#1 Субтитры: [AniLibria]
Переводчик: chibikTLT, Shaman, Timur_kun
#2 Субтитры английскик: [HIDIVE]-

Скриншоты

Список эпизодов


1 Kongming Descends Upon Shibuya
2 Kongming Uses a Stratagem
3 Kongming Learns of the Right Path to Take
4 Kongming Lights the Way
5 Kongming Busts a Rhyme
6 Kongming`s Freestyle

MediaInfo

Общее
Уникальный идентификатор : 181122923528996206162634487157956753838 (0x8843019694EE4554C01C086C169739AE)
Полное имя : E:\Раздачи\[NanDesuKa] Paripi Koumei [WEBRip 1080p x264 AAC]\[NanDesuKa] Paripi Koumei - 01 [WEBRip 1080p x264 AAC].mkv
Формат : Matroska
Версия формата : Version 4
Размер файла : 1,02 Гбайт
Продолжительность : 23 м. 42 с.
Общий поток : 6 149 Кбит/сек
Дата кодирования : UTC 2022-05-11 15:20:53
Программа кодирования : mkvmerge v67.0.0 ('Under Stars') 64-bit
Библиотека кодирования : libebml v1.4.2 + libmatroska v1.6.4
Attachments : Arial Black.ttf / Arial Bold Italic.ttf / Arial Bold.ttf / Arial.ttf / Roboto-Medium.ttf / Roboto-MediumItalic.ttf / NotoSans-Medium.ttf
Видео
Идентификатор : 1
Формат : AVC
Формат/Информация : Advanced Video Codec
Профиль формата : [email protected]
Настройки формата : CABAC / 4 Ref Frames
Параметр CABAC формата : Да
Параметр RefFrames формата : 4 кадра
Идентификатор кодека : V_MPEG4/ISO/AVC
Продолжительность : 23 м. 40 с.
Битрейт : 5 827 Кбит/сек
Ширина : 1 920 пикселей
Высота : 1 080 пикселей
Соотношение сторон : 16:9
Режим частоты кадров : Постоянный
Частота кадров : 23,976 (24000/1001) кадра/сек
Цветовое пространство : YUV
Субдискретизация насыщенности : 4:2:0
Битовая глубина : 8 бит
Тип развёртки : Прогрессивная
Бит/(Пиксели*Кадры) : 0.117
Размер потока : 986 Мбайт (95%)
Библиотека кодирования : BiliBili H264 Encoder v1.0
Язык : Japanese
Default : Да
Forced : Нет
Цветовой диапазон : Limited
Основные цвета : BT.709
Характеристики трансфера : BT.709
Коэффициенты матрицы : BT.709
Аудио
Идентификатор : 2
Формат : AAC LC
Формат/Информация : Advanced Audio Codec Low Complexity
Идентификатор кодека : A_AAC-2
Продолжительность : 23 м. 40 с.
Битрейт : 315 Кбит/сек
Каналы : 2 канала
Channel layout : L R
Частота : 48,0 КГц
Частота кадров : 46,875 кадров/сек (1024 SPF)
Метод сжатия : С потерями
Размер потока : 53,3 Мбайт (5%)
Язык : Japanese
Default : Да
Forced : Нет
Текст #1
Идентификатор : 3
Формат : ASS
Идентификатор кодека : S_TEXT/ASS
Идентификатор кодека/Информация : Advanced Sub Station Alpha
Продолжительность : 23 м. 38 с.
Битрейт : 233 бит/сек
Count of elements : 526
Метод сжатия : Без потерь
Размер потока : 40,4 Кбайт (0%)
Заголовок : AniLibria
Язык : Russian
Default : Да
Forced : Нет
Текст #2
Идентификатор : 4
Формат : ASS
Идентификатор кодека : S_TEXT/ASS
Идентификатор кодека/Информация : Advanced Sub Station Alpha
Продолжительность : 23 м. 41 с.
Битрейт : 125 бит/сек
Count of elements : 432
Метод сжатия : Без потерь
Размер потока : 21,9 Кбайт (0%)
Язык : English
Default : Нет
Forced : Нет
Меню
00:00:00.000 : en:Episode
00:22:10.581 : en:Ending
00:23:30.660 : en:Preview


Display posts:    

Current time is: 26-May 11:12

All times are UTC ± 0


You cannot post new topics in this forum
You cannot reply to topics in this forum
You cannot edit your posts in this forum
You cannot delete your posts in this forum
You cannot vote in polls in this forum
You cannot attach files in this forum
You cannot download files in this forum

!ATTENTION!
The site does not give electronic versions of products, and is engaged only in a collecting and cataloguing of the references sent and published at a forum by our readers. If you are the legal owner of any submitted material and do not wish that the reference to it was in our catalogue, contact us and we shall immediately remove her. Files for an exchange on tracker are given by users of a site, and the administration does not bear the responsibility for their maintenance. The request to not fill in the files protected by copyrights, and also files of the illegal maintenance!