Ивановский Торрент трекер
Яндекс.Погода
 

[Quote]
HUNTER

Три богатыря и принцесса Египта«Грабим пирамиды!»- Страна: Россия
Жанр: Мультфильм, приключения, семейный, полнометражный
Продолжительность: 01:08:43
Год выпуска: 2017
Русские субтитры: нет-Режиссёр: Константин Феоктистов-Роли озвучивали: Олег Куликович, Валерий Соловьёв, Дмитрий Быковский-Ромашов, Сергей Маковецкий, Дмитрий Высоцкий, Александр Быковский, Елена Шульман, Лия Медведева, Мария Цветкова-Овсянникова, Анатолий Петров-Описание: В новогоднюю ночь, в то время, как Князь готовится произнести торжественную речь, а Юлий распаковывает подарки и следит за приготовлением праздничного стола, богатыри едут в гости к Алёше и встречают там странного товарища по имени Дурило. Оказывается, это тринадцатый месяц, который никому особенно не нужен, и который пытается осуществить своё заветное желание — стать самым главным месяцем в году. Только и надо ему, что притвориться Дедом Морозом, показать доверчивому Алёше пару фокусов, подружиться с богатырями и оказаться в Египте — стране фараонов и древних пирамид. А дальше — пирамиды, заклинание, Древний огонь — и дело в шляпе! Но не так-то просто осуществить своё коварное желание, когда на пути у тебя встают не только три богатыря, но и их жёны, Князь и Юлий, Змей Горыныч и Дед Мороз и даже — сама принцесса Нефертити!-Семпл: http://multi-up.com/1185095-Качество: WEB-DLRip
Формат: AVI
Видео: 704x400 (16:9), 25.000 fps, XviD build 73, 1 877 Kbps, 0.26 bit/pixel
Аудио: 48 kHz, AC3 Dolby Digital, 3/2 (L,C,R,l,r) + LFE ch, 384 Kbps
Субтитры: отсутствуют

MI

General
Complete name : Downloads\Tri.bogatyirya.i.printsessa.Egipta.2017.WEB-DLRip
Format : AVI
Format/Info : Audio Video Interleave
File size : 1.09 GiB
Duration : 1h 8mn
Overall bit rate : 2 271 Kbps
Writing application : VirtualDubMod 1.5.10.2 (build 2540/release)
Writing library : VirtualDubMod build 2540/release
Video #0
ID : 0
Format : MPEG-4 Visual
Format profile : Advanced [email protected]
Format settings, BVOP : 1
Format settings, QPel : No
Format settings, GMC : No warppoints
Format settings, Matrix : Custom
Codec ID : XVID
Codec ID/Hint : XviD
Duration : 1h 8mn
Bit rate : 1 877 Kbps
Width : 704 pixels
Height : 400 pixels
Display aspect ratio : 16:9
Frame rate : 25.000 fps
Color space : YUV
Chroma subsampling : 4:2:0
Bit depth : 8 bits
Scan type : Progressive
Compression mode : Lossy
Bits/(Pixel*Frame) : 0.267
Stream size : 922 MiB (83%)
Writing library : XviD 73
Audio #1
ID : 1
Format : AC-3
Format/Info : Audio Coding 3
Mode extension : CM (complete main)
Format settings, Endianness : Big
Codec ID : 2000
Duration : 1h 8mn
Bit rate mode : Constant
Bit rate : 384 Kbps
Channel(s) : 6 channels
Channel positions : Front: L C R, Side: L R, LFE
Sampling rate : 48.0 KHz
Bit depth : 16 bits
Compression mode : Lossy
Stream size : 189 MiB (17%)
Alignment : Split accross interleaves
Interleave, duration : 40 ms (1.00 video frame)
Interleave, preload duration : 500 ms

Скриншоты



Display posts:    

Current time is: 16-Oct 12:57

All times are UTC ± 0


You cannot post new topics in this forum
You cannot reply to topics in this forum
You cannot edit your posts in this forum
You cannot delete your posts in this forum
You cannot vote in polls in this forum
You cannot attach files in this forum
You cannot download files in this forum

!ATTENTION!
The site does not give electronic versions of products, and is engaged only in a collecting and cataloguing of the references sent and published at a forum by our readers. If you are the legal owner of any submitted material and do not wish that the reference to it was in our catalogue, contact us and we shall immediately remove her. Files for an exchange on tracker are given by users of a site, and the administration does not bear the responsibility for their maintenance. The request to not fill in the files protected by copyrights, and also files of the illegal maintenance!