Ивановский Торрент трекер
Яндекс.Погода
 

[Quote]
HUNTER

Три богатыря и принцесса Египта
Страна: Россия
Жанр: мультфильм, приключения, семейный, фэнтези
Продолжительность: 01:08:43
Год выпуска: 2017
Русские субтитры: нет
Режиссёр: Константин Феоктистов
Роли озвучивали: Олег Куликович
Валерий Соловьев
Дмитрий Быковский-Ромашов
Сергей Маковецкий
Дмитрий Высоцкий
Александр Быковский
Елена Шульман
Лия Медведева
Мария Цветкова-Овсянникова
Анатолий Петров
Описание: В новогоднюю ночь, в то время, как Князь готовится произнести торжественную речь, а Юлий распаковывает подарки и следит за приготовлением праздничного стола, богатыри едут в гости к Алёше и встречают там странного товарища по имени Дурило. Оказывается, это тринадцатый месяц, который никому особенно не нужен, и который пытается осуществить своё заветное желание — стать самым главным месяцем в году. Только и надо ему, что притвориться Дедом Морозом, показать доверчивому Алёше пару фокусов, подружиться с богатырями и оказаться в Египте — стране фараонов и древних пирамид. А дальше — пирамиды, заклинание, Древний огонь — и дело в шляпе! Но не так-то просто осуществить своё коварное желание, когда на пути у тебя встают не только три богатыря, но и их жёны, Князь и Юлий, Змей Горыныч и Дед Мороз и даже — сама принцесса Нефертити!
Доп. информация: https://www.kinopoisk.ru/film/tri-bogatyrya-i-princessa-egipta-2017-1038154/
Семпл: http://sendfile.su/1395167
Качество: WEB-DLRip
Формат: AVI
Видео: 720x400 (1.80:1), 25 fps, XviD build 50 ~1285 kbps avg, 0.18 bit/pixel найдено в сети
Аудио: 48 kHz, MPEG Layer 3, 2 ch, ~192.00 kbps avg исходник для звуковой дорожки найден в сети
Субтитры: отсутствуют

Подробные технические данные

General
Complete name : D:\Tri_Bogatirya_I_Printsessa_Egipta_2017_WEB-DLRip_Original_Rus.avi
Format : AVI
Format/Info : Audio Video Interleave
File size : 731 MiB
Duration : 1h 8mn
Overall bit rate : 1 487 Kbps
Video
ID : 0
Format : MPEG-4 Visual
Format profile : Advanced [email protected]
Format settings, BVOP : 2
Format settings, QPel : No
Format settings, GMC : No warppoints
Format settings, Matrix : Default (MPEG)
Codec ID : XVID
Codec ID/Hint : XviD
Duration : 1h 8mn
Bit rate : 1 286 Kbps
Width : 720 pixels
Height : 400 pixels
Display aspect ratio : 16:9
Frame rate : 25.000 fps
Color space : YUV
Chroma subsampling : 4:2:0
Bit depth : 8 bits
Scan type : Progressive
Compression mode : Lossy
Bits/(Pixel*Frame) : 0.179
Stream size : 632 MiB (86%)
Writing library : XviD 1.2.1 (UTC 2008-12-04)
Audio
ID : 1
Format : MPEG Audio
Format version : Version 1
Format profile : Layer 3
Mode : Joint stereo
Mode extension : MS Stereo
Codec ID : 55
Codec ID/Hint : MP3
Duration : 1h 8mn
Bit rate mode : Constant
Bit rate : 192 Kbps
Channel count : 2 channels
Sampling rate : 48.0 KHz
Compression mode : Lossy
Stream size : 94.4 MiB (13%)
Alignment : Aligned on interleaves
Interleave, duration : 40 ms (1.00 video frame)
Interleave, preload duration : 504 ms
Writing library : LAMELAME_MAJOR_VERSI

Скриншоты



Display posts:    

Current time is: 23-Oct 18:17

All times are UTC ± 0


You cannot post new topics in this forum
You cannot reply to topics in this forum
You cannot edit your posts in this forum
You cannot delete your posts in this forum
You cannot vote in polls in this forum
You cannot attach files in this forum
You cannot download files in this forum

!ATTENTION!
The site does not give electronic versions of products, and is engaged only in a collecting and cataloguing of the references sent and published at a forum by our readers. If you are the legal owner of any submitted material and do not wish that the reference to it was in our catalogue, contact us and we shall immediately remove her. Files for an exchange on tracker are given by users of a site, and the administration does not bear the responsibility for their maintenance. The request to not fill in the files protected by copyrights, and also files of the illegal maintenance!