Ивановский Торрент трекер
Яндекс.Погода
 

[Quote]
HUNTER

-Три билборда на границе Эббинга, Миссури / Three Billboards Outside Ebbing, Missouri- Страна: Великобритания, США
Студия: Blueprint Pictures
Жанр: драма, криминал
Год выпуска: 2017
Продолжительность: 01:55:20-Перевод: Профессиональный (дублированный) |BD EUR|
Перевод 2: Одноголосый закадровый |Михаил Яроцкий|
Субтитры: Русские (полные (BD CEE)), форсированные, (Focs) [ненормативная лексика], украинские (полные), английские (полные)
Оригинальная аудиодорожка: английский-Режиссер: Мартин МакДона / Martin McDonagh-В ролях: Вуди Харрельсон, Фрэнсис МакДорманд, Калеб Лэндри Джонс, Керри Кондон, Эбби Корниш, Сэм Рокуэлл, Алехандро Барриос, Джейсон Редфорд, Даррел Бритт-Гибсон
Описание: Спустя несколько месяцев после убийства дочери Милдред Хейс преступники так и не найдены. Отчаявшаяся женщина решается на смелый шаг, арендуя на въезде в город три биллборда с посланием к авторитетному главе полиции Уильяму Уиллоуби. Когда в ситуацию оказывается втянут еще и заместитель шерифа, инфантильный маменькин сынок со склонностью к насилию, офицер Диксон, борьба между Милдред и властями города только усугубляется.-| Сэмпл | IMDB | КиноПоиск |
В переводе Михаил Яроцкого присутствует ненормативная лексика-Тип релиза: BDRip 1080p |DON|
Контейнер: MKV
Видео: MPEG-4 AVC, 16300 kbps, 1920x804 (2,40:1), 23,976 fps
Аудио 1: DTS 5.1 / 48 kHz / 768 kbps - Дубляж, (BD EUR)
Аудио 2: DTS, 5.1 / 48 kHz / 1509 kbps - Михаил Яроцкий, (VO)
Аудио 3: AC3, 5.1 / 48 kHz / 448 kbps - Украинский, (DUB)
Аудио 4: DTS, 5.1 / 48 kHz / 1509 kbps - Английский
Формат субтитров: softsub (SRT); PGS

MediaInfo

Общее
Уникальный идентификатор : 70703468800540651939975055526744438538 (0x3530FE26677718EC7FD595A19C8E370A)
Полное имя : D:\torrents\3_BILLBOARDS_OE_MISSOURI_BDRip_1080p_DON.mkv
Формат : Matroska
Версия формата : Version 4 / Version 2
Размер файла : 16,6 Гбайт
Продолжительность : 1 ч. 55 м.
Общий поток : 20,5 Мбит/сек
Название фильма : 3_BILLBOARDS_OE_MISSOURI_BDRip_1080p_DON
Дата кодирования : UTC 2018-02-26 14:20:55
Программа кодирования : mkvmerge v20.0.0 ('I Am The Sun') 64-bit
Библиотека кодирования : libebml v1.3.5 + libmatroska v1.4.8
Видео
Идентификатор : 1
Формат : AVC
Формат/Информация : Advanced Video Codec
Профиль формата : [email protected]
Параметр CABAC формата : Да
Параметр ReFrames формата : 5 кадров
Идентификатор кодека : V_MPEG4/ISO/AVC
Продолжительность : 1 ч. 55 м.
Битрейт : 16,3 Мбит/сек
Ширина : 1920 пикселей
Высота : 804 пикселя
Соотношение сторон : 2,40:1
Режим частоты кадров : Постоянный
Частота кадров : 23,976 (24000/1001) кадра/сек
Цветовое пространство : YUV
Субдискретизация насыщенности : 4:2:0
Битовая глубина : 8 бит
Тип развёртки : Прогрессивная
Бит/(Пиксели*Кадры) : 0.440
Размер потока : 13,1 Гбайт (79%)
Заголовок : Three.Billboards.Outside.Ebbing.Missouri.2017.1080p.BluRay.DD5.1.x264-DON
Библиотека кодирования : x264 core 148 r2705+54 9f484c1 t_mod_Custom [[email protected] X86_64]
Настройки программы : cabac=1 / ref=5 / deblock=1:-3:-3 / analyse=0x3:0x133 / me=umh / subme=10 / psy=1 / fade_compensate=0.00 / psy_rd=1.00:0.00 / mixed_ref=1 / me_range=32 / chroma_me=1 / trellis=2 / 8x8dct=1 / cqm=0 / deadzone=21,11 / fast_pskip=0 / chroma_qp_offset=-2 / threads=6 / lookahead_threads=1 / sliced_threads=0 / nr=0 / decimate=0 / interlaced=0 / bluray_compat=0 / constrained_intra=0 / fgo=0 / bframes=8 / b_pyramid=2 / b_adapt=2 / b_bias=0 / direct=3 / weightb=1 / open_gop=0 / weightp=2 / keyint=250 / keyint_min=23 / scenecut=40 / intra_refresh=0 / rc=crf / mbtree=0 / crf=15.9000 / qcomp=0.60 / qpmin=0:0:0 / qpmax=69:69:69 / qpstep=4 / ip_ratio=1.25 / pb_ratio=1.15 / aq=3:0.80 / aq-sensitivity=10.00 / aq-factor=1.00:1.00:1.00 / aq2=0 / aq3=0 / zones=24,572,crf=14.6/5482,5725,b=1.6/5880,6097,b=1.6/6355,6983,b=1.6/7085,7192,b=1.6/7244,7266,b=1.6/8969,9079,b=1.2/46457,46515,b=1.7/46592,46709,b=1.7/46827,47882,b=1.7/68779,68807,b=1.5/70157,70352,b=1.5/70529,70939,b=1.5/73481,73583,b=1.2/76767,77387,crf=15.5/82666,82786,crf=15/102047,102614,b=1.6/103748,103800,crf=15/103849,103896,crf=15/105194,105288,b=1.7/105330,105384,b=1.7/105385,105756,crf=15/118044,118151,b=1.7/118241,118422,b=1.7/118512,118629,b=1.7/118727,118788,b=1.7/118884,119037,b=1.7/145571,145830,b=1.5/146002,146117,b=1.5/157143,157664,b=1.3/159126,165934,b=0.5
Язык : English
Default : Да
Forced : Нет
Аудио #1
Идентификатор : 2
Формат : DTS
Формат/Информация : Digital Theater Systems
Режим : 16
Параметр Endianness формата : Big
Идентификатор кодека : A_DTS
Продолжительность : 1 ч. 55 м.
Вид битрейта : Постоянный
Битрейт : 768 Кбит/сек
Каналы : 6 каналов
Расположение каналов : Front: L C R, Side: L R, LFE
Частота : 48,0 КГц
Частота кадров : 93,750 кадра/сек (512 spf)
Битовая глубина : 24 бит
Метод сжатия : С потерями
Размер потока : 634 Мбайт (4%)
Заголовок : [DUB] DTS 5.1 @ 768 kbps [BD EUR]
Язык : Russian
Default : Да
Forced : Нет
Аудио #2
Идентификатор : 3
Формат : DTS
Формат/Информация : Digital Theater Systems
Режим : 16
Параметр Endianness формата : Big
Идентификатор кодека : A_DTS
Продолжительность : 1 ч. 55 м.
Вид битрейта : Постоянный
Битрейт : 1509 Кбит/сек
Каналы : 6 каналов
Расположение каналов : Front: L C R, Side: L R, LFE
Частота : 48,0 КГц
Частота кадров : 93,750 кадра/сек (512 spf)
Битовая глубина : 24 бит
Метод сжатия : С потерями
Размер потока : 1,22 Гбайт (7%)
Заголовок : [VO] Яроцкий DTS 5.1 @ 1509 kbps (ненормативная лексика)
Язык : Russian
Default : Нет
Forced : Нет
Аудио #3
Идентификатор : 4
Формат : AC-3
Формат/Информация : Audio Coding 3
Параметр Endianness формата : Big
Идентификатор кодека : A_AC3
Продолжительность : 1 ч. 55 м.
Вид битрейта : Постоянный
Битрейт : 448 Кбит/сек
Каналы : 6 каналов
Расположение каналов : Front: L C R, Side: L R, LFE
Частота : 48,0 КГц
Частота кадров : 31,250 кадров/сек (1536 spf)
Битовая глубина : 16 бит
Метод сжатия : С потерями
Размер потока : 370 Мбайт (2%)
Заголовок : [DUB] DD 5.1 @ 448 kbps [BD EUR]
Язык : Ukrainian
ServiceKind/String : Complete Main
Default : Нет
Forced : Нет
Аудио #4
Идентификатор : 5
Формат : DTS
Формат/Информация : Digital Theater Systems
Режим : 16
Параметр Endianness формата : Big
Идентификатор кодека : A_DTS
Продолжительность : 1 ч. 55 м.
Вид битрейта : Постоянный
Битрейт : 1509 Кбит/сек
Каналы : 6 каналов
Расположение каналов : Front: L C R, Side: L R, LFE
Частота : 48,0 КГц
Частота кадров : 93,750 кадра/сек (512 spf)
Битовая глубина : 24 бит
Метод сжатия : С потерями
Размер потока : 1,22 Гбайт (7%)
Заголовок : [ORIGINAL] DTS 5.1 @ 1509 kbps
Язык : English
Default : Нет
Forced : Нет
Текст #1
Идентификатор : 6
Формат : UTF-8
Идентификатор кодека : S_TEXT/UTF8
Идентификатор кодека/Информация : UTF-8 Plain Text
Продолжительность : 2 м. 31 с.
Битрейт : 7 бит/сек
ElementCount : 3
Размер потока : 137 байт (0%)
Заголовок : Forced
Язык : Russian
Default : Нет
Forced : Нет
Текст #2
Идентификатор : 7
Формат : UTF-8
Идентификатор кодека : S_TEXT/UTF8
Идентификатор кодека/Информация : UTF-8 Plain Text
Продолжительность : 1 ч. 53 м.
Битрейт : 79 бит/сек
ElementCount : 1154
Размер потока : 66,5 Кбайт (0%)
Заголовок : Full
Язык : Russian
Default : Нет
Forced : Нет
Текст #3
Идентификатор : 8
Формат : UTF-8
Идентификатор кодека : S_TEXT/UTF8
Идентификатор кодека/Информация : UTF-8 Plain Text
Продолжительность : 1 ч. 46 м.
Битрейт : 99 бит/сек
ElementCount : 1367
Размер потока : 77,6 Кбайт (0%)
Заголовок : Full-Focs [ненормативная лексика]
Язык : Russian
Default : Нет
Forced : Нет
Текст #4
Идентификатор : 9
Формат : UTF-8
Идентификатор кодека : S_TEXT/UTF8
Идентификатор кодека/Информация : UTF-8 Plain Text
Продолжительность : 1 ч. 46 м.
Битрейт : 62 бит/сек
ElementCount : 1450
Размер потока : 48,8 Кбайт (0%)
Заголовок : Full
Язык : English
Default : Нет
Forced : Нет
Текст #5
Идентификатор : 10
Формат : UTF-8
Идентификатор кодека : S_TEXT/UTF8
Идентификатор кодека/Информация : UTF-8 Plain Text
Продолжительность : 1 ч. 49 м.
Битрейт : 60 бит/сек
ElementCount : 1657
Размер потока : 48,6 Кбайт (0%)
Заголовок : SDH
Язык : English
Default : Нет
Forced : Нет
Текст #6
Идентификатор : 11
Формат : UTF-8
Идентификатор кодека : S_TEXT/UTF8
Идентификатор кодека/Информация : UTF-8 Plain Text
Продолжительность : 1 ч. 49 м.
Битрейт : 68 бит/сек
ElementCount : 1657
Размер потока : 54,9 Кбайт (0%)
Заголовок : SDH Colored
Язык : English
Default : Нет
Forced : Нет
Текст #7
Идентификатор : 12
Формат : PGS
Режим смешивания : zlib
Идентификатор кодека : S_HDMV/PGS
Идентификатор кодека/Информация : Picture based subtitle format used on BDs/HD-DVDs
Продолжительность : 1 ч. 53 м.
Битрейт : 33,8 Кбит/сек
ElementCount : 2319
Размер потока : 27,4 Мбайт (0%)
Заголовок : Full-length
Язык : Ukrainian
Default : Нет
Forced : Нет
Меню
00:00:00.000 : en:00:00:00.000
00:05:42.092 : en:00:05:42.092
00:08:56.911 : en:00:08:56.911
00:12:50.019 : en:00:12:50.019
00:19:46.644 : en:00:19:46.644
00:23:43.547 : en:00:23:43.547
00:27:36.363 : en:00:27:36.363
00:31:35.769 : en:00:31:35.769
00:35:08.690 : en:00:35:08.690
00:40:54.827 : en:00:40:54.827
00:44:35.715 : en:00:44:35.715
00:49:18.789 : en:00:49:18.789
00:55:35.916 : en:00:55:35.916
00:59:56.134 : en:00:59:56.134
01:04:09.888 : en:01:04:09.888
01:10:55.293 : en:01:10:55.293
01:15:36.699 : en:01:15:36.699
01:23:08.734 : en:01:23:08.734
01:27:24.489 : en:01:27:24.489
01:35:49.702 : en:01:35:49.702
01:40:32.693 : en:01:40:32.693
01:44:02.194 : en:01:44:02.194
01:46:56.910 : en:01:46:56.910
01:49:55.005 : en:01:49:55.005

Скриншоты

Торрент-файл обновлен 26/02/18


Display posts:    

Current time is: 23-Oct 18:24

All times are UTC ± 0


You cannot post new topics in this forum
You cannot reply to topics in this forum
You cannot edit your posts in this forum
You cannot delete your posts in this forum
You cannot vote in polls in this forum
You cannot attach files in this forum
You cannot download files in this forum

!ATTENTION!
The site does not give electronic versions of products, and is engaged only in a collecting and cataloguing of the references sent and published at a forum by our readers. If you are the legal owner of any submitted material and do not wish that the reference to it was in our catalogue, contact us and we shall immediately remove her. Files for an exchange on tracker are given by users of a site, and the administration does not bear the responsibility for their maintenance. The request to not fill in the files protected by copyrights, and also files of the illegal maintenance!