Ивановский Торрент трекер
Яндекс.Погода
 

[Quote]
HUNTER

Тоня против всех / I, Tonya
Страна: США
Студия: Clubhouse Pictures (II), LuckyChap Entertainment
Жанр: драма, биография, спорт
Год выпуска: 2017
Продолжительность: 01:59:59
Перевод: Профессиональный (дублированный)
Субтитры: русские, английские
Оригинальная аудиодорожка: английский
Режиссер: Крэйг Гиллеспи / Craig Gillespie
В ролях: Марго Робби, Себастьян Стэн, Эллисон Дженни, Джулианна Николсон, Пол Уолтер Хаузер, Бобби Каннавале, Бояна Новакович, Мэйзи Смит
Описание: Американской фигуристке Тоне Хардинг пришлось нелегко: сначала тяжелое детство с грозной матерью, потом тяжелая юность, ранний брак с проходимцем и неудачи на соревнованиях из-за заниженных судьями оценок. А потом случился скандал: во время важнейших соревнований идея запугать конкурентку идёт не по плану.
| IMDB | КиноПоиск | Сэмпл |
Тип релиза: BDRip 1080p
Контейнер: MKV
Видео: MPEG-4 AVC Video 8925 Кbps 1920x808 / 23,976 fps
Аудио 1: Dolby Digital Audio Russian 384 kbps 5.1 / 48 kHz
Аудио 2: Dolby Digital Audio English 448 kbps 5.1 / 48 kHz
Формат субтитров: softsub (SRT)
Дополнительно: Сохранены оригинальные чаптеры

MediaInfo

General
Unique ID : 177976158665145752475850910143660650301 (0x85E4F61A1E161B99858E966C56376F3D)
Complete name : Тоня.против.всех.2017.BDRip.1080p.mkv
Format : Matroska
Format version : Version 4 / Version 2
File size : 8.18 GiB
Duration : 1 h 59 min
Overall bit rate : 9 756 kb/s
Encoded date : UTC 2018-03-02 07:22:43
Writing application : mkvmerge v7.1.0 ('Good Love') 64bit built on Jul 27 2014 13:06:55
Writing library : libebml v1.3.0 + libmatroska v1.4.1
Video
ID : 1
Format : AVC
Format/Info : Advanced Video Codec
Format profile : [email protected]
Format settings : CABAC / 5 Ref Frames
Format settings, CABAC : Yes
Format settings, RefFrames : 5 frames
Codec ID : V_MPEG4/ISO/AVC
Duration : 1 h 59 min
Bit rate : 8 925 kb/s
Width : 1 920 pixels
Height : 808 pixels
Display aspect ratio : 2.40:1
Frame rate mode : Constant
Frame rate : 23.976 (24000/1001) FPS
Color space : YUV
Chroma subsampling : 4:2:0
Bit depth : 8 bits
Scan type : Progressive
Bits/(Pixel*Frame) : 0.240
Stream size : 7.48 GiB (91%)
Writing library : x264 core 155 r2901 7d0ff22
Encoding settings : cabac=1 / ref=5 / deblock=1:-3:-3 / analyse=0x3:0x133 / me=umh / subme=8 / psy=1 / psy_rd=1.00:0.00 / mixed_ref=1 / me_range=16 / chroma_me=1 / trellis=1 / 8x8dct=1 / cqm=0 / deadzone=21,11 / fast_pskip=0 / chroma_qp_offset=-2 / threads=25 / lookahead_threads=4 / sliced_threads=0 / nr=0 / decimate=1 / interlaced=0 / bluray_compat=0 / constrained_intra=0 / bframes=3 / b_pyramid=2 / b_adapt=1 / b_bias=0 / direct=3 / weightb=1 / open_gop=0 / weightp=2 / keyint=250 / keyint_min=23 / scenecut=40 / intra_refresh=0 / rc_lookahead=50 / rc=2pass / mbtree=1 / bitrate=8925 / ratetol=1.0 / qcomp=0.60 / qpmin=0 / qpmax=69 / qpstep=4 / cplxblur=20.0 / qblur=0.5 / vbv_maxrate=62500 / vbv_bufsize=78125 / nal_hrd=none / filler=0 / ip_ratio=1.40 / aq=1:1.00
Language : English
Default : Yes
Forced : No
Audio #1
ID : 2
Format : AC-3
Format/Info : Audio Coding 3
Codec ID : A_AC3
Duration : 1 h 59 min
Bit rate mode : Constant
Bit rate : 384 kb/s
Channel(s) : 6 channels
Channel positions : Front: L C R, Side: L R, LFE
Sampling rate : 48.0 kHz
Frame rate : 31.250 FPS (1536 SPF)
Bit depth : 16 bits
Compression mode : Lossy
Stream size : 329 MiB (4%)
Title : iTunes
Language : Russian
Service kind : Complete Main
Default : Yes
Forced : No
Audio #2
ID : 3
Format : AC-3
Format/Info : Audio Coding 3
Codec ID : A_AC3
Duration : 1 h 59 min
Bit rate mode : Constant
Bit rate : 448 kb/s
Channel(s) : 6 channels
Channel positions : Front: L C R, Side: L R, LFE
Sampling rate : 48.0 kHz
Frame rate : 31.250 FPS (1536 SPF)
Bit depth : 16 bits
Compression mode : Lossy
Stream size : 384 MiB (5%)
Language : English
Service kind : Complete Main
Default : No
Forced : No
Text #1
ID : 4
Format : UTF-8
Codec ID : S_TEXT/UTF8
Codec ID/Info : UTF-8 Plain Text
Duration : 1 h 50 min
Bit rate : 108 b/s
Count of elements : 1266
Stream size : 87.9 KiB (0%)
Language : Russian
Default : Yes
Forced : No
Text #2
ID : 5
Format : UTF-8
Codec ID : S_TEXT/UTF8
Codec ID/Info : UTF-8 Plain Text
Duration : 1 h 59 min
Bit rate : 74 b/s
Count of elements : 2165
Stream size : 65.0 KiB (0%)
Title : SDH
Language : English
Default : No
Forced : No
Text #3
ID : 6
Format : UTF-8
Codec ID : S_TEXT/UTF8
Codec ID/Info : UTF-8 Plain Text
Duration : 1 h 58 min
Bit rate : 61 b/s
Count of elements : 1779
Stream size : 53.2 KiB (0%)
Language : English
Default : No
Forced : No
Menu
00:00:00.000 : en:00:00:00.000
00:18:16.804 : en:00:18:16.804
00:36:27.685 : en:00:36:27.685
00:55:08.514 : en:00:55:08.514
01:11:49.597 : en:01:11:49.597
01:24:35.153 : en:01:24:35.153
01:36:46.968 : en:01:36:46.968
01:52:34.289 : en:01:52:34.289

Скриншоты



Display posts:    

Current time is: 23-Oct 18:03

All times are UTC ± 0


You cannot post new topics in this forum
You cannot reply to topics in this forum
You cannot edit your posts in this forum
You cannot delete your posts in this forum
You cannot vote in polls in this forum
You cannot attach files in this forum
You cannot download files in this forum

!ATTENTION!
The site does not give electronic versions of products, and is engaged only in a collecting and cataloguing of the references sent and published at a forum by our readers. If you are the legal owner of any submitted material and do not wish that the reference to it was in our catalogue, contact us and we shall immediately remove her. Files for an exchange on tracker are given by users of a site, and the administration does not bear the responsibility for their maintenance. The request to not fill in the files protected by copyrights, and also files of the illegal maintenance!