Ивановский Торрент трекер
Яндекс.Погода
 

[Quote]
HUNTER

Такой же другой, как и я / Same Kind of Different as Me
Страна: США
Студия: Disruption Entertainment, One October Films, Paramount Pictures
Жанр: драма
Год выпуска: 2017
Продолжительность: 01:59:16
Перевод: Профессиональный (дублированный) | iTunes
Субтитры: русские, английские
Оригинальная аудиодорожка: английский
Режиссер: Майкл Карни / Michael Carney
В ролях: Рене Зеллвегер, Джон Войт, Оливия Холт, Джимон Хонсу, Грег Киннир, Дэна Гурье, Пейтон Уич, Энн Махони, Лара Грайс, Джеральдин Сингер
Описание: Со стороны кажется, что у успешного торговца произведениями искусства Рона Холла и его жены Дебби идеальная жизнь. Но когда их вера и семья подвергаются испытанию на прочность, неожиданное знакомство с бездомным приводит к удивительному путешествию, в котором рождается истинная дружба.
| IMDB | КиноПоиск | Сэмпл |
Тип релиза: BDRip 1080p
Контейнер: MKV
Видео: MPEG-4 AVC Video 13.9 Mbps 1920x800 / 23,976 fps
Аудио: Dolby Digital Audio Russian 384 kbps 5.1 / 48 kHz
Аудио 2: Dolby Digital Audio English 640 kbps 5.1 / 48 kHz
Формат субтитров: softsub (SRT)
Доп. информация: Сохранены оригинальные чаптеры

MediaInfo

Формат : Matroska
Версия формата : Version 4 / Version 2
Размер файла : 12,4 Гбайт
Продолжительность : 1 ч. 59 м.
Общий поток : 14,9 Мбит/сек
Название фильма : Same Kind of Different as Me 2017 from ExKinoRay
Дата кодирования : UTC 2018-03-01 11:14:22
Программа кодирования : mkvmerge v21.0.0 ('Tardigrades Will Inherit The Earth') 64-bit
Библиотека кодирования : libebml v1.3.5 + libmatroska v1.4.8
Видео
Идентификатор : 1
Формат : AVC
Формат/Информация : Advanced Video Codec
Профиль формата : H[email protected]
Настройки формата : CABAC / 5 Ref Frames
Параметр CABAC формата : Да
Параметр RefFrames формата : 5 кадров
Идентификатор кодека : V_MPEG4/ISO/AVC
Продолжительность : 1 ч. 59 м.
Битрейт : 13,6 Мбит/сек
Ширина : 1920 пикселей
Высота : 800 пикселей
Соотношение сторон : 2,40:1
Режим частоты кадров : Постоянный
Частота кадров : 23,976 (24000/1001) кадра/сек
Цветовое пространство : YUV
Субдискретизация насыщенности : 4:2:0
Битовая глубина : 8 бит
Тип развёртки : Прогрессивная
Бит/(Пиксели*Кадры) : 0.369
Размер потока : 11,3 Гбайт (91%)
Библиотека кодирования : x264 core 142 r2431+42 c69a006 tMod [[email protected]:2:0 X86_64]
Язык : English
Default : Да
Forced : Нет
Цветовой диапазон : Limited
Коэффициенты матрицы : BT.709
Аудио #1
Идентификатор : 2
Формат : AC-3
Формат/Информация : Audio Coding 3
Идентификатор кодека : A_AC3
Продолжительность : 1 ч. 59 м.
Вид битрейта : Постоянный
Битрейт : 384 Кбит/сек
Каналы : 6 каналов
Расположение каналов : Front: L C R, Side: L R, LFE
Частота : 48,0 КГц
Частота кадров : 31,250 кадров/сек (1536 SPF)
Битовая глубина : 16 бит
Метод сжатия : С потерями
Размер потока : 328 Мбайт (3%)
Заголовок : iTunes
Язык : Russian
ServiceKind/String : Complete Main
Default : Да
Forced : Нет
Аудио #2
Идентификатор : 3
Формат : AC-3
Формат/Информация : Audio Coding 3
Идентификатор кодека : A_AC3
Продолжительность : 1 ч. 59 м.
Вид битрейта : Постоянный
Битрейт : 640 Кбит/сек
Каналы : 6 каналов
Расположение каналов : Front: L C R, Side: L R, LFE
Частота : 48,0 КГц
Частота кадров : 31,250 кадров/сек (1536 SPF)
Битовая глубина : 16 бит
Метод сжатия : С потерями
Размер потока : 546 Мбайт (4%)
Заголовок : Original
Язык : English
ServiceKind/String : Complete Main
Default : Нет
Forced : Нет
Текст #1
Идентификатор : 4
Формат : UTF-8
Идентификатор кодека : S_TEXT/UTF8
Идентификатор кодека/Информация : UTF-8 Plain Text
Заголовок : Full
Язык : Russian
Default : Нет
Forced : Нет
Текст #2
Идентификатор : 5
Формат : UTF-8
Идентификатор кодека : S_TEXT/UTF8
Идентификатор кодека/Информация : UTF-8 Plain Text
Заголовок : Full
Язык : English
Default : Нет
Forced : Нет
Меню
00:00:00.000 : en:00:00:00.000
00:07:33.328 : en:00:07:33.328
00:14:07.430 : en:00:14:07.430
00:20:27.518 : en:00:20:27.518
00:26:51.610 : en:00:26:51.610
00:32:24.109 : en:00:32:24.109
00:37:42.010 : en:00:37:42.010
00:44:49.979 : en:00:44:49.979
00:51:43.767 : en:00:51:43.767
00:57:21.063 : en:00:57:21.063
01:03:50.785 : en:01:03:50.785
01:12:40.690 : en:01:12:40.690
01:20:03.340 : en:01:20:03.340
01:27:32.747 : en:01:27:32.747
01:32:40.889 : en:01:32:40.889
01:40:31.817 : en:01:40:31.817
01:47:21.226 : en:01:47:21.226
01:55:29.840 : en:01:55:29.840

Скриншоты



Display posts:    

Current time is: 21-Oct 18:22

All times are UTC ± 0


You cannot post new topics in this forum
You cannot reply to topics in this forum
You cannot edit your posts in this forum
You cannot delete your posts in this forum
You cannot vote in polls in this forum
You cannot attach files in this forum
You cannot download files in this forum

!ATTENTION!
The site does not give electronic versions of products, and is engaged only in a collecting and cataloguing of the references sent and published at a forum by our readers. If you are the legal owner of any submitted material and do not wish that the reference to it was in our catalogue, contact us and we shall immediately remove her. Files for an exchange on tracker are given by users of a site, and the administration does not bear the responsibility for their maintenance. The request to not fill in the files protected by copyrights, and also files of the illegal maintenance!