Ивановский Торрент трекер
Яндекс.Погода
 

[Quote]
HUNTER

Тайна Коко / Coco
Страна: США
Студия: Pixar Animation Studios, Walt Disney Pictures
Жанр: мультфильм, фэнтези, комедия, детектив, приключения, семейный, музыка
Продолжительность: 01:45:02
Год выпуска: 2017
Перевод: Профессиональный (дублированный) Blu Ray
Оригинальная аудиодорожка: Английский
Субтитры: Русские, Английские--Режиссёр: Ли Анкрич / Lee Unkrich, Эдриан Молина / Adrian Molina--Роли озвучивали: Энтони Гонсалес, Гаэль Гарсиа Берналь, Бенджамин Брэтт, Аланна Юбак, Рене Виктор, Хайме Камиль, Альфонсо Арау, Херберт Сигенса, Габриэль Иглесиас, Ломбардо Бойяр...--Описание: 12-летний Мигель живёт в мексиканской деревушке в семье сапожников и тайно мечтает стать музыкантом. Тайно — потому что в его семейном клане музыка считается проклятием. Когда-то его прапрадед оставил свою жену, прапрабабку Мигеля, ради мечты, которая теперь не даёт спокойно жить Мигелю. С тех пор музыкальная тема в семье стала табу. Мигель обнаруживает, что между ним и его любимым певцом Эрнесто де ла Крусом, ныне покойным, существует некая — пока неназванная — связь. Паренёк отправляется к своему кумиру в Страну Мёртвых, где встречает души своих предков. Мигель знакомится там с духом-трикстером по имени Гектор (в облике скелета), который становится его проводником. Вдвоём они отправляются на поиски де ла Круса.--Доп. информация: | IMDB | КиноПоиск | Сэмпл | --Качество: BDRip 720p Coco.2017.BluRay.1080p.AVC.DTS-HD.MA7.1-CHDBits
Формат: MKV
Видео: AVC, 1280x536 (2.40:1), 4490 kbps, 23.976 fps, 0.273 bit/pixel.
Аудио 1: AC3 Dolby Digital, 3/2 (L,C,R,l,r) + LFE ch, 48.0 KHz, 640 Kbps.
Аудио 2: AC3 Dolby Digital, 3/2 (L,C,R,l,r) + LFE ch, 48.0 KHz, 640 Kbps.
Аудио 3: AC3 Dolby Digital, 2/0 (L,R) ch, 48 kHz, 192 kbps. Commentary
Субтитры: Русские (Форсированные, Полные, Полные-FOCS, Комментарии), Englishl (Full, SDH, SDH-Colored)

Скриншоты

Подробные технические данные

x264

raw [info]: 1280x536p 1:1 @ 24000/1001 fps (cfr)
x264 [info]: using SAR=1/1
x264 [info]: using cpu capabilities: MMX2 SSE2Fast SSSE3 SSE4.2 AVX
x264 [info]: profile High, level 4.1
x264 [info]: frame I:1390 Avg QP:14.54 size:131340
x264 [info]: frame P:35006 Avg QP:16.09 size: 48513
x264 [info]: frame B:114700 Avg QP:18.67 size: 14433
x264 [info]: consecutive B-frames: 2.8% 2.7% 11.0% 24.0% 19.6% 32.8% 3.2% 1.0% 2.3% 0.3% 0.2% 0.2%
x264 [info]: mb I I16..4: 3.1% 75.7% 21.2%
x264 [info]: mb P I16..4: 0.7% 12.5% 2.2% P16..4: 31.8% 30.8% 19.6% 0.0% 0.0% skip: 2.3%
x264 [info]: mb B I16..4: 0.1% 1.0% 0.3% B16..8: 35.1% 15.8% 5.9% direct: 7.0% skip:34.8% L0:41.8% L1:39.5% BI:18.7%
x264 [info]: 8x8 transform intra:78.6% inter:54.3%
x264 [info]: coded y,uvDC,uvAC intra: 92.5% 96.1% 91.3% inter: 28.2% 28.7% 15.3%
x264 [info]: i16 v,h,dc,p: 42% 11% 6% 41%
x264 [info]: i8 v,h,dc,ddl,ddr,vr,hd,vl,hu: 15% 11% 9% 8% 11% 11% 12% 11% 13%
x264 [info]: i4 v,h,dc,ddl,ddr,vr,hd,vl,hu: 13% 9% 4% 9% 15% 13% 14% 11% 13%
x264 [info]: i8c dc,h,v,p: 46% 20% 18% 16%
x264 [info]: Weighted P-Frames: Y:3.6% UV:2.7%
x264 [info]: ref P L0: 51.3% 11.7% 15.1% 5.9% 4.8% 3.4% 3.0% 1.7% 1.7% 1.4% 0.1% 0.0%
x264 [info]: ref B L0: 76.1% 10.8% 5.0% 2.6% 1.9% 1.5% 1.2% 0.7% 0.3%
x264 [info]: ref B L1: 95.6% 4.4%
x264 [info]: kb/s:4489.16
General
Unique ID : 209488654589603615639858010211426182673 (0x9D9A0C1B16E1F380AA2EB7F1F1B32611)
Complete name : Coco (2017) BDRip.720p.mkv
Format : Matroska
Format version : Version 4 / Version 2
File size : 4.38 GiB
Duration : 1 h 45 min
Overall bit rate : 5 965 kb/s
Movie name : Тайна Коко / Coco (2017) BDRip 720p
Encoded date : UTC 2018-04-05 21:53:32
Writing application : mkvmerge v8.1.0 ('Psychedelic Postcard') 64bit
Writing library : libebml v1.3.1 + libmatroska v1.4.2
Cover : Yes
Attachments : cover.jpg
Video
ID : 1
Format : AVC
Format/Info : Advanced Video Codec
Format profile : [email protected]
Format settings : CABAC / 10 Ref Frames
Format settings, CABAC : Yes
Format settings, ReFrames : 10 frames
Codec ID : V_MPEG4/ISO/AVC
Duration : 1 h 45 min
Bit rate : 4 489 kb/s
Width : 1 280 pixels
Height : 536 pixels
Display aspect ratio : 2.40:1
Frame rate mode : Constant
Frame rate : 23.976 (24000/1001) FPS
Color space : YUV
Chroma subsampling : 4:2:0
Bit depth : 8 bits
Scan type : Progressive
Bits/(Pixel*Frame) : 0.273
Stream size : 3.29 GiB (75%)
Title : Тайна Коко / Coco (2017) By optik.1557
Writing library : x264 core 152 r2851kMod ba24899
Encoding settings : cabac=1 / ref=10 / deblock=1:-2:-1 / analyse=0x3:0x113 / me=umh / subme=10 / psy=1 / fade_compensate=0.00 / psy_rd=1.05:0.01 / mixed_ref=1 / me_range=32 / chroma_me=1 / trellis=2 / 8x8dct=1 / cqm=0 / deadzone=21,11 / fast_pskip=0 / chroma_qp_offset=-3 / threads=6 / lookahead_threads=1 / sliced_threads=0 / nr=0 / decimate=1 / interlaced=0 / bluray_compat=0 / constrained_intra=0 / bframes=11 / b_pyramid=2 / b_adapt=2 / b_bias=0 / direct=1 / weightb=1 / open_gop=0 / weightp=2 / keyint=250 / keyint_min=23 / scenecut=40 / intra_refresh=0 / rc_lookahead=60 / rc=crf / mbtree=0 / crf=16.5000 / qcomp=0.70 / qpmin=0 / qpmax=69 / qpstep=4 / vbv_maxrate=50000 / vbv_bufsize=62500 / crf_max=0.0 / nal_hrd=none / filler=0 / ip_ratio=1.40 / pb_ratio=1.30 / aq=3:0.85
Language : English
Default : Yes
Forced : No
Audio #1
ID : 2
Format : AC-3
Format/Info : Audio Coding 3
Codec ID : A_AC3
Duration : 1 h 45 min
Bit rate mode : Constant
Bit rate : 640 kb/s
Channel(s) : 6 channels
Channel positions : Front: L C R, Side: L R, LFE
Sampling rate : 48.0 kHz
Frame rate : 31.250 FPS (1536 SPF)
Bit depth : 16 bits
Compression mode : Lossy
Stream size : 481 MiB (11%)
Title : Дубляж (Невафильм)
Language : Russian
Service kind : Complete Main
Default : Yes
Forced : No
Audio #2
ID : 3
Format : AC-3
Format/Info : Audio Coding 3
Codec ID : A_AC3
Duration : 1 h 45 min
Bit rate mode : Constant
Bit rate : 640 kb/s
Channel(s) : 6 channels
Channel positions : Front: L C R, Side: L R, LFE
Sampling rate : 48.0 kHz
Frame rate : 31.250 FPS (1536 SPF)
Bit depth : 16 bits
Compression mode : Lossy
Stream size : 481 MiB (11%)
Title : Original
Language : English
Service kind : Complete Main
Default : No
Forced : No
Audio #3
ID : 4
Format : AC-3
Format/Info : Audio Coding 3
Codec ID : A_AC3
Duration : 1 h 45 min
Bit rate mode : Constant
Bit rate : 192 kb/s
Channel(s) : 2 channels
Channel positions : Front: L R
Sampling rate : 48.0 kHz
Frame rate : 31.250 FPS (1536 SPF)
Bit depth : 16 bits
Compression mode : Lossy
Stream size : 144 MiB (3%)
Title : Commentary. Directors: Lee Unkrich, Adrian Molina, Producer: Darla K. Anderson.
Language : English
Service kind : Complete Main
Default : No
Forced : No
Text #1
ID : 5
Format : UTF-8
Codec ID : S_TEXT/UTF8
Codec ID/Info : UTF-8 Plain Text
Duration : 1 s 1 ms
Bit rate : 255 b/s
Count of elements : 1
Stream size : 32.0 Bytes (0%)
Title : Форсированные
Language : Russian
Default : Yes
Forced : No
Text #2
ID : 6
Format : UTF-8
Codec ID : S_TEXT/UTF8
Codec ID/Info : UTF-8 Plain Text
Duration : 1 h 34 min
Bit rate : 94 b/s
Count of elements : 1168
Stream size : 65.7 KiB (0%)
Title : Полные
Language : Russian
Default : No
Forced : No
Text #3
ID : 7
Format : UTF-8
Codec ID : S_TEXT/UTF8
Codec ID/Info : UTF-8 Plain Text
Duration : 1 h 34 min
Bit rate : 105 b/s
Count of elements : 1601
Stream size : 73.2 KiB (0%)
Title : Полные (FOCS)
Language : Russian
Default : No
Forced : No
Text #4
ID : 8
Format : UTF-8
Codec ID : S_TEXT/UTF8
Codec ID/Info : UTF-8 Plain Text
Duration : 1 h 42 min
Bit rate : 163 b/s
Count of elements : 1881
Stream size : 124 KiB (0%)
Title : Комментарии. Режиссёры: Ли Анкрич, Эдриан Молина, Продюсер: Дарла К. Андерсон.
Language : Russian
Default : No
Forced : No
Text #5
ID : 9
Format : UTF-8
Codec ID : S_TEXT/UTF8
Codec ID/Info : UTF-8 Plain Text
Duration : 1 h 37 min
Bit rate : 63 b/s
Count of elements : 1441
Stream size : 45.6 KiB (0%)
Title : Full
Language : English
Default : No
Forced : No
Text #6
ID : 10
Format : UTF-8
Codec ID : S_TEXT/UTF8
Codec ID/Info : UTF-8 Plain Text
Duration : 1 h 38 min
Bit rate : 77 b/s
Count of elements : 1722
Stream size : 55.9 KiB (0%)
Title : SDH
Language : English
Default : No
Forced : No
Text #7
ID : 11
Format : UTF-8
Codec ID : S_TEXT/UTF8
Codec ID/Info : UTF-8 Plain Text
Duration : 1 h 38 min
Bit rate : 109 b/s
Count of elements : 1723
Stream size : 78.5 KiB (0%)
Title : SDH-Colored
Language : English
Default : No
Forced : No
Menu
00:00:00.000 : : 1. Prologue / Пролог
00:06:40.190 : : 2. Meet Miguel / Мигель
00:08:41.519 : : 3. Shoemakers / Сапожники
00:11:13.589 : : 4. Much Needed Advice / Полезные советы
00:14:20.317 : : 5. Secret Discovery / Тайные знания
00:17:06.942 : : 6. Dream Shattered / Мечта
00:18:20.932 : : 7. Unholy Act / Нечестивый Поступок
00:22:05.990 : : 8. Skeletons / Скелеты
00:24:19.958 : : 9. Crossing the Bridge / Пересечение моста
00:27:44.828 : : 10. Department of Family Reunions / Отдел семейных воссоединений
00:29:07.912 : : 11. Setting the Rules / Благословение для Мигеля
00:32:15.307 : : 12. Escape from Family / Побег из семьи
00:35:18.407 : : 13. Rehearsal / Репетиция
00:41:25.523 : : 14. The Final Death / Смерть после смерти
00:47:04.695 : : 15. Backstage Bonding / За кулисами
00:50:54.175 : : 16. Talent Show / Шоу талантов
00:54:23.885 : : 17. On His Own / Сам по себе
00:56:45.025 : : 18. Meet de la Cruz / Знакомства с де ла Крузом
01:01:42.614 : : 19. Kindred Spirits / Родственные души
01:03:28.137 : : 20. The Awful Truth / Ужасная правда
01:08:58.216 : : 21. Remember Me / Помни меня
01:15:17.261 : : 22. Reconciliation / Примирение
01:18:56.773 : : 23. Find the Photo / Найти фото
01:21:31.761 : : 24. Sunrise Spectacular / Восход солнца
01:24:31.815 : : 25. Blessing Received / Благословение
01:28:23.463 : : 26. Song for Coco / Песня для Коко
01:33:14.755 : : 27. One Year Later / Год спустя
01:36:10.471 : : 28. End Credits / Конец


Display posts:    

Current time is: 21-Oct 23:47

All times are UTC ± 0


You cannot post new topics in this forum
You cannot reply to topics in this forum
You cannot edit your posts in this forum
You cannot delete your posts in this forum
You cannot vote in polls in this forum
You cannot attach files in this forum
You cannot download files in this forum

!ATTENTION!
The site does not give electronic versions of products, and is engaged only in a collecting and cataloguing of the references sent and published at a forum by our readers. If you are the legal owner of any submitted material and do not wish that the reference to it was in our catalogue, contact us and we shall immediately remove her. Files for an exchange on tracker are given by users of a site, and the administration does not bear the responsibility for their maintenance. The request to not fill in the files protected by copyrights, and also files of the illegal maintenance!