Ивановский Торрент трекер
Яндекс.Погода
 

[Quote]
HUNTER

Тайна Коко
Coco
«The celebration of a lifetime»
Страна: США
Жанр: мультфильм, фэнтези, комедия, детектив, приключения, семейный, музыка
Год выпуска: 2017
Продолжительность: 01:45:02
Перевод: Профессиональный (полное дублирование) [iTunes]
Субтитры: русские (форсированные, полные)
Оригинальная аудиодорожка: нет
Режиссер: Ли Анкрич / Lee Unkrich, Эдриан Молина / Adrian Molina
В ролях: Энтони Гонсалес, Гаэль Гарсиа Берналь, Бенджамин Брэтт, Аланна Юбак, Рене Виктор, Хайме Камиль, Альфонсо Арау, Херберт Сигенса, Габриэль Иглесиас, Ломбардо Бойяр, Ана Офелиа Мургуйя, Наталия Кордова
Описание:
12-летний Мигель живёт в мексиканской деревушке в семье сапожников и тайно мечтает стать музыкантом. Тайно - потому что в его семейном клане музыка считается проклятием. Когда-то его прапрадед оставил свою жену, прапрабабку Мигеля, ради мечты, которая теперь не даёт спокойно жить Мигелю. С тех пор музыкальная тема в семье стала табу. Мигель обнаруживает, что между ним и его любимым певцом Эрнесто де ла Крусом, ныне покойным, существует некая - пока неназванная - связь. Паренёк отправляется к своему кумиру в Страну Мёртвых, где встречает души своих предков. Мигель знакомится там с духом-трикстером по имени Гектор (в облике скелета), который становится его проводником. Вдвоём они отправляются на поиски де ла Круса.

Автор рипа: stalkerok
Сэмпл
Качество видео: BDRip-AVC [Coco.2017.1080p.Blu-ray.AVC.DTS-HD.MA.7.1-nLiBRA]
Формат видео: MKV
Видео: AVC, 1538 Кбит/сек, 960x402 (2.40:1), 23,976 кадр/сек
Аудио: AC3, 384 Кбит/сек, 48 КГц, 5.1 - русский
Навигация по главам: есть

x264/MediaInfo

---[Information] [16.02.2018 12:41:40] x264 [info]: frame I:1319 Avg QP:17.34 size: 63313
---[Information] [16.02.2018 12:41:40] x264 [info]: frame P:41873 Avg QP:23.19 size: 15162
---[Information] [16.02.2018 12:41:40] x264 [info]: frame B:107905 Avg QP:23.39 size: 4569
General
Unique ID : 178176539992976238261912392677669015897 (0x860B8DAA0C511E3B88559D9A99D51159)
Complete name : M:\$new\Coco 2017\Coco.2017.BDRip-AVC.RUS.stalkerok.new-team.mkv
Format : Matroska
Format version : Version 4 / Version 2
File size : 1.41 GiB
Duration : 1 h 45 min
Overall bit rate : 1 924 kb/s
Movie name : Coco (2017) (Rip by stalkerok)
Encoded date : UTC 2018-02-16 09:59:57
Writing application : mkvmerge v8.6.1 ('Flying') 64bit
Writing library : libebml v1.3.3 + libmatroska v1.4.4
Video
ID : 1
Format : AVC
Format/Info : Advanced Video Codec
Format profile : [email protected]
Format settings, CABAC : Yes
Format settings, ReFrames : 12 frames
Codec ID : V_MPEG4/ISO/AVC
Duration : 1 h 45 min
Bit rate : 1 538 kb/s
Width : 960 pixels
Height : 402 pixels
Display aspect ratio : 2.40:1
Frame rate mode : Constant
Frame rate : 23.976 (24000/1001) FPS
Color space : YUV
Chroma subsampling : 4:2:0
Bit depth : 8 bits
Scan type : Progressive
Bits/(Pixel*Frame) : 0.166
Stream size : 1.13 GiB (80%)
Title : Coco (2017) (Rip by stalkerok)
Writing library : x264 core 152 r2851kMod ba24899
Encoding settings : cabac=1 / ref=12 / deblock=1:-1:-1 / analyse=0x3:0x133 / me=umh / subme=11 / psy=1 / fade_compensate=0.00 / psy_rd=1.00:0.00 / mixed_ref=1 / me_range=32 / chroma_me=1 / trellis=2 / 8x8dct=1 / cqm=0 / deadzone=21,11 / fast_pskip=0 / chroma_qp_offset=-2 / threads=12 / lookahead_threads=3 / sliced_threads=0 / nr=0 / decimate=0 / interlaced=0 / bluray_compat=0 / constrained_intra=0 / bframes=15 / b_pyramid=2 / b_adapt=2 / b_bias=0 / direct=3 / weightb=1 / open_gop=0 / weightp=2 / keyint=240 / keyint_min=23 / scenecut=40 / intra_refresh=0 / rc_lookahead=60 / rc=2pass / mbtree=0 / bitrate=1538 / ratetol=1.0 / qcomp=0.65 / qpmin=0 / qpmax=69 / qpstep=4 / cplxblur=20.0 / qblur=0.5 / vbv_maxrate=50000 / vbv_bufsize=62500 / nal_hrd=none / filler=0 / ip_ratio=1.40 / pb_ratio=1.30 / aq=3:0.80 / zones=138311,151096,q=34
Default : Yes
Forced : No
Audio
ID : 2
Format : AC-3
Format/Info : Audio Coding 3
Mode extension : CM (complete main)
Format settings, Endianness : Big
Codec ID : A_AC3
Duration : 1 h 45 min
Bit rate mode : Constant
Bit rate : 384 kb/s
Channel(s) : 6 channels
Channel positions : Front: L C R, Side: L R, LFE
Sampling rate : 48.0 kHz
Frame rate : 31.250 FPS (1536 spf)
Compression mode : Lossy
Stream size : 288 MiB (20%)
Title : iTunes
Language : Russian
Default : Yes
Forced : No
Text #1
ID : 3
Format : UTF-8
Codec ID : S_TEXT/UTF8
Codec ID/Info : UTF-8 Plain Text
Duration : 2 s 85 ms
Bit rate : 356 b/s
Count of elements : 2
Stream size : 93.0 Bytes (0%)
Title : Forced
Language : Russian
Default : Yes
Forced : No
Text #2
ID : 4
Format : UTF-8
Codec ID : S_TEXT/UTF8
Codec ID/Info : UTF-8 Plain Text
Duration : 1 h 34 min
Bit rate : 94 b/s
Count of elements : 1168
Stream size : 65.7 KiB (0%)
Language : Russian
Default : No
Forced : No
Menu
00:00:00.000 : en:Chapter 1
00:06:40.191 : en:Chapter 2
00:08:41.520 : en:Chapter 3
00:11:13.589 : en:Chapter 4
00:14:20.317 : en:Chapter 5
00:17:06.942 : en:Chapter 6
00:18:20.932 : en:Chapter 7
00:22:05.991 : en:Chapter 8
00:24:19.958 : en:Chapter 9
00:27:44.829 : en:Chapter 10
00:29:07.912 : en:Chapter 11
00:32:15.308 : en:Chapter 12
00:35:18.407 : en:Chapter 13
00:41:25.524 : en:Chapter 14
00:47:04.696 : en:Chapter 15
00:50:54.175 : en:Chapter 16
00:54:23.885 : en:Chapter 17
00:56:45.026 : en:Chapter 18
01:01:42.615 : en:Chapter 19
01:03:28.137 : en:Chapter 20
01:08:58.216 : en:Chapter 21
01:15:17.262 : en:Chapter 22
01:18:56.773 : en:Chapter 23
01:21:31.761 : en:Chapter 24
01:24:31.816 : en:Chapter 25
01:28:23.464 : en:Chapter 26
01:33:14.755 : en:Chapter 27
01:36:10.472 : en:Chapter 28

Скриншоты



Display posts:    

Current time is: 23-Oct 18:40

All times are UTC ± 0


You cannot post new topics in this forum
You cannot reply to topics in this forum
You cannot edit your posts in this forum
You cannot delete your posts in this forum
You cannot vote in polls in this forum
You cannot attach files in this forum
You cannot download files in this forum

!ATTENTION!
The site does not give electronic versions of products, and is engaged only in a collecting and cataloguing of the references sent and published at a forum by our readers. If you are the legal owner of any submitted material and do not wish that the reference to it was in our catalogue, contact us and we shall immediately remove her. Files for an exchange on tracker are given by users of a site, and the administration does not bear the responsibility for their maintenance. The request to not fill in the files protected by copyrights, and also files of the illegal maintenance!