Сумерки / Twilight (Катрин Хардвик / Catherine Hardwicke) [2008, США, фэнтези, драма, мелодрама, UHD BDRemux 2160p, HDR10, Dolby Vision] Dub + DVO + AVO + Original (Eng) + Sub (Rus, Eng) :: Российский Торрент трекер
Российский Торрент трекер
Яндекс.Погода
 

[Quote]
HUNTER

Сумерки / Twilight
--Страна: США
Студия: Goldcrest Pictures, Imprint Entertainment, Maverick Films, Summit Entertainment, Temple Hill Entertainment, Twilight Productions
Жанр: фэнтези, драма, мелодрама
Год выпуска: 2008
Продолжительность: 02:01:49--Перевод 1: Профессиональный (дублированный) Blu-Ray
Перевод 2: Профессиональный (двухголосый закадровый)
Перевод 3: Авторский (одноголосый закадровый) Ю. Немахов
Субтитры: русские, английские (full, SDH)
Оригинальная аудиодорожка: английский--Режиссер: Катрин Хардвик / Catherine Hardwicke
В ролях: Кристен Стюарт, Роберт Паттинсон, Билли Бурк, Эшли Грин, Никки Рид, Джексон Рэтбоун, Келлан Латс, Питер Фасинелли, Кэм Жиганде, Тэйлор Лотнер--Описание: Семнадцатилетняя девушка Белла переезжает к отцу в небольшой городок Форкс. Она влюбляется в загадочного одноклассника, который, как оказалось, происходит из семьи вампиров, отказавшихся от нападений на людей. Влюбиться в вампира. Это страшно? Это романтично, это прекрасно и мучительно, но это не может кончиться добром, особенно в вечном противостоянии вампирских кланов, где малейшее отличие от окружающих уже превращает вас во врага.--imdb | kinopoisk | Сэмпл--Тип релиза: UHD BDRemux 2160p [Twilight.2008.COMPLETE.UHD.BLURAY-WhiteRhino]
Контейнер: MKV
Видео: MPEG-H HEVC Video / 71,4 Mbps / 3840x2160 / 23,976 fps / 16:9 / Main 10 @ Level 5.1 @ High / 4:2:0 / 10 bits / 1000nits / Dolby Vision FEL - HDR10 / BT.2020
Аудио 1: Russian DTS-HD Master Audio / 5.1 / 48 kHz / 2385 kbps / 16-bit (DTS Core: 5.1 / 48 kHz / 1509 kbps / 16-bit) |Dub, Blu-Ray|
Аудио 2: Russian AC3 / 5.1 / 48 kHz / 320 kbps / 16-bit |DVO|
Аудио 3: Russian AC3 / 5.1 / 48 kHz / 448 kbps / 16-bit |Ю. Немахов|
Аудио 4: English Dolby TrueHD/Atmos Audio / 7.1-Atmos / 48 kHz / 4772 kbps / 24-bit |original|
Аудио 5: English AC3 Core: 5.1-EX / 48 kHz / 640 kbps |original|
Формат субтитров: softsub [SRT]

MediaInfo

Код:
General
Unique ID : 114764772871939640630079902184266669005 (0x5656E429D80820040F93E39F61161BCD)
Complete name : H:\UHD\Сумерки.2008.UHD.BluRay.Remux.2160p.mkv
Format : Matroska
Format version : Version 4
File size : 68.1 GiB
Duration : 2 h 1 min
Overall bit rate mode : Variable
Overall bit rate : 80.1 Mb/s
Encoded date : UTC 2022-05-12 16:11:31
Writing application : mkvmerge v64.0.0 ('Willows') 64-bit
Writing library : libebml v1.4.2 + libmatroska v1.6.4
Attachments : poster.jpg
Video
ID : 1
ID in the original source medium : 4113 (0x1011)
Format : HEVC
Format/Info : High Efficiency Video Coding
Format profile : Main [email protected]@High
HDR format : Dolby Vision, Version 1.0, dvhe.07.06, BL+EL+RPU, Blu-ray compatible / SMPTE ST 2086, HDR10 compatible
Codec ID : V_MPEGH/ISO/HEVC
Duration : 2 h 1 min
Bit rate : 71.4 Mb/s
Width : 3 840 pixels
Height : 2 160 pixels
Display aspect ratio : 16:9
Frame rate mode : Constant
Frame rate : 23.976 (24000/1001) FPS
Color space : YUV
Chroma subsampling : 4:2:0 (Type 2)
Bit depth : 10 bits
Bits/(Pixel*Frame) : 0.359
Stream size : 60.8 GiB (89%)
Language : English
Default : Yes
Forced : No
Color range : Limited
Color primaries : BT.2020
Transfer characteristics : PQ
Matrix coefficients : BT.2020 non-constant
Mastering display color primaries : Display P3
Mastering display luminance : min: 0.0001 cd/m2, max: 1000 cd/m2
Maximum Content Light Level : 1000 cd/m2
Maximum Frame-Average Light Level : 905 cd/m2
Original source medium : Blu-ray
Audio #1
ID : 2
Format : DTS XLL
Format/Info : Digital Theater Systems
Commercial name : DTS-HD Master Audio
Codec ID : A_DTS
Duration : 2 h 1 min
Bit rate mode : Variable
Bit rate : 2 385 kb/s
Channel(s) : 6 channels
Channel layout : C L R Ls Rs LFE
Sampling rate : 48.0 kHz
Frame rate : 93.750 FPS (512 SPF)
Bit depth : 16 bits
Compression mode : Lossless
Stream size : 2.03 GiB (3%)
Title : Dub, Blu-Ray
Language : Russian
Default : Yes
Forced : No
Audio #2
ID : 3
Format : AC-3
Format/Info : Audio Coding 3
Commercial name : Dolby Digital
Codec ID : A_AC3
Duration : 2 h 1 min
Bit rate mode : Constant
Bit rate : 320 kb/s
Channel(s) : 6 channels
Channel layout : L R C LFE Ls Rs
Sampling rate : 48.0 kHz
Frame rate : 31.250 FPS (1536 SPF)
Compression mode : Lossy
Stream size : 279 MiB (0%)
Title : DVO
Language : Russian
Service kind : Complete Main
Default : No
Forced : No
Audio #3
ID : 4
Format : AC-3
Format/Info : Audio Coding 3
Commercial name : Dolby Digital
Codec ID : A_AC3
Duration : 2 h 1 min
Bit rate mode : Constant
Bit rate : 448 kb/s
Channel(s) : 6 channels
Channel layout : L R C LFE Ls Rs
Sampling rate : 48.0 kHz
Frame rate : 31.250 FPS (1536 SPF)
Compression mode : Lossy
Stream size : 390 MiB (1%)
Title : Ю. Немахов
Language : Russian
Service kind : Complete Main
Default : No
Forced : No
Audio #4
ID : 5
Format : MLP FBA 16-ch
Format/Info : Meridian Lossless Packing FBA with 16-channel presentation
Commercial name : Dolby TrueHD with Dolby Atmos
Codec ID : A_TRUEHD
Duration : 2 h 1 min
Bit rate mode : Variable
Bit rate : 4 772 kb/s
Maximum bit rate : 7 335 kb/s
Channel(s) : 8 channels
Channel layout : L R C LFE Ls Rs Lb Rb
Sampling rate : 48.0 kHz
Frame rate : 1 200.000 FPS (40 SPF)
Compression mode : Lossless
Stream size : 4.06 GiB (6%)
Language : Russian
Default : No
Forced : No
Number of dynamic objects : 15
Bed channel count : 1 channel
Bed channel configuration : LFE
Audio #5
ID : 6
Format : AC-3
Format/Info : Audio Coding 3
Commercial name : Dolby Digital
Format settings : Dolby Surround EX
Codec ID : A_AC3
Duration : 2 h 1 min
Bit rate mode : Constant
Bit rate : 640 kb/s
Channel(s) : 6 channels
Channel layout : L R C LFE Ls Rs
Sampling rate : 48.0 kHz
Frame rate : 31.250 FPS (1536 SPF)
Compression mode : Lossy
Stream size : 558 MiB (1%)
Language : Russian
Service kind : Complete Main
Default : No
Forced : No
Text #1
ID : 7
Format : UTF-8
Codec ID : S_TEXT/UTF8
Codec ID/Info : UTF-8 Plain Text
Duration : 1 h 55 min
Bit rate : 74 b/s
Count of elements : 1232
Stream size : 62.7 KiB (0%)
Title : full
Language : Russian
Default : No
Forced : No
Text #2
ID : 8
Format : UTF-8
Codec ID : S_TEXT/UTF8
Codec ID/Info : UTF-8 Plain Text
Duration : 1 h 52 min
Bit rate : 52 b/s
Count of elements : 1327
Stream size : 43.5 KiB (0%)
Title : full
Language : English
Default : No
Forced : No
Text #3
ID : 9
Format : UTF-8
Codec ID : S_TEXT/UTF8
Codec ID/Info : UTF-8 Plain Text
Duration : 2 h 1 min
Bit rate : 58 b/s
Count of elements : 1630
Stream size : 52.1 KiB (0%)
Title : SDH
Language : English
Default : No
Forced : No
Menu
00:00:00.000 : :Chapter 1
00:07:42.337 : :Chapter 2
00:16:18.311 : :Chapter 3
00:20:50.749 : :Chapter 4
00:29:48.662 : :Chapter 5
00:36:38.988 : :Chapter 6
00:44:23.119 : :Chapter 7
00:49:35.139 : :Chapter 8
00:55:01.256 : :Chapter 9
01:01:24.890 : :Chapter 10
01:11:32.872 : :Chapter 11
01:17:12.837 : :Chapter 12
01:29:07.300 : :Chapter 13
01:35:45.323 : :Chapter 14
01:46:18.497 : :Chapter 15
01:53:52.367 : :Chapter 16

Скриншоты


Дополнительно

Цитата:Дорожка №1 и русские субтитры взяты с этой раздачи thx: MaLLIeHbKa Цитата:7.1 дорожка на BD на деле оказалась 5.1 (BL=L, BR=R).

скрытый текст

Цитата:Дорожка №2 взята с этой раздачи thx: Юpист Цитата:Дорожка №3 взята с этой раздачи thx: PetrRomanov


Display posts:    

Current time is: 26-May 11:51

All times are UTC ± 0


You cannot post new topics in this forum
You cannot reply to topics in this forum
You cannot edit your posts in this forum
You cannot delete your posts in this forum
You cannot vote in polls in this forum
You cannot attach files in this forum
You cannot download files in this forum

!ATTENTION!
The site does not give electronic versions of products, and is engaged only in a collecting and cataloguing of the references sent and published at a forum by our readers. If you are the legal owner of any submitted material and do not wish that the reference to it was in our catalogue, contact us and we shall immediately remove her. Files for an exchange on tracker are given by users of a site, and the administration does not bear the responsibility for their maintenance. The request to not fill in the files protected by copyrights, and also files of the illegal maintenance!