Ивановский Торрент трекер
Яндекс.Погода
 

[Quote]
HUNTER

Старики
Страна: Россия
Студия: Lime Production
Жанр: Драма
Год выпуска: 2015
Продолжительность: 01:46:31
Перевод: Не требуется
Субтитры: нет
Оригинальная аудио дорожка: Русский
Режиссёр: Владимир Вобликов
В ролях: Виталий Стужев, Сергей Фетисов, Ирина Волкова, Татьяна Иванюк, Михаил Асанкин, Михаил Шилов, Василий Шмаков, Александра Налбантова-Агранович, Ольга Ованенко, Ян Виноградов, Назар Артамонов
Описание: По мотивам пьесы Алексея Дударева «Вечер». Три пожилых человека - Мультик, Гастрит и Анна - живут одни в заброшенной деревне за 10 километров от районного центра. Они живут только надеждой, что когда-нибудь к ним приедут их дети, которые давно о них забыли. Это по-доброму сумасшедшие люди, которые хотят добра другим, а в своей жизни мало чего хорошего видели. Они лишние на земле. Старики ссорятся, мирятся, сватаются, женятся, но, понимая, что все это бессмысленно, решают взять судьбу в свои руки и доказать, что не все еще потеряно.
Доп. информация:
Автор релиза -
Источник аудио и видео - HDTV 1080i TS - моя запись с канала Наш Кинороман HD


Сэмпл: https://yadi.sk/i/0uV7XCwh3SQ2QU
Рекламы нет!
Качество видео: HDTV 1080i
Формат видео: TS
Видео: MPEG-4, 1920x1080 (16:9), 25.000 fps, 7342 kbps, 0.142 bit/pixel
Аудио 1: Русский MP2, 48000 Гц, 2ch, 192 kbps
Аудио 2: Русский AC3, 48000 Гц, 6ch, 448 kbps

MediaInfo

Общее
Идентификатор : 1 (0x1)
Полное имя : D:\Старики.2015.HDTV.1080i-ylnian.ts
Формат : MPEG-TS
Размер файла : 6,25 Гбайт
Продолжительность : 1 ч. 46 м.
Режим общего битрейта : Переменный
Общий поток : 8404 Кбит/сек
Видео
Идентификатор : 3551 (0xDDF)
Идентификатор меню : 17015 (0x4277)
Формат : AVC
Формат/Информация : Advanced Video Codec
Профиль формата : [email protected]
Настройки формата : CABAC / 3 Ref Frames
Параметр CABAC формата : Да
Параметр RefFrames формата : 3 кадра
Идентификатор кодека : 27
Продолжительность : 1 ч. 46 м.
Битрейт : 7342 Кбит/сек
Ширина : 1920 пикселей
Высота : 1080 пикселей
Соотношение сторон : 16:9
Частота кадров : 25,000 кадров/сек
Стандарт вещания : Component
Цветовое пространство : YUV
Субдискретизация насыщенности : 4:2:0
Битовая глубина : 8 бит
Тип развёртки : Чересстрочная
Метод сохранения типа развёртки : Раздельные поля
Порядок развёртки : Верхнее поле первое
Бит/(Пиксели*Кадры) : 0.142
Размер потока : 5,46 Гбайт (87%)
Цветовой диапазон : Limited
Основные цвета : BT.709
Характеристики трансфера : BT.709
Коэффициенты матрицы : BT.709
Аудио #1
Идентификатор : 3552 (0xDE0)
Идентификатор меню : 17015 (0x4277)
Формат : MPEG Audio
Версия формата : Version 1
Профиль формата : Layer 2
Идентификатор кодека : 3
Продолжительность : 1 ч. 46 м.
Вид битрейта : Постоянный
Битрейт : 192 Кбит/сек
Каналы : 2 канала
Частота : 48,0 КГц
Частота кадров : 41,667 кадра/сек (1152 SPF)
Метод сжатия : С потерями
Задержка видео : -80 мс.
Размер потока : 146 Мбайт (2%)
Язык : Russian
Аудио #2
Идентификатор : 3553 (0xDE1)
Идентификатор меню : 17015 (0x4277)
Формат : AC-3
Формат/Информация : Audio Coding 3
Идентификатор кодека : 6
Продолжительность : 1 ч. 46 м.
Вид битрейта : Постоянный
Битрейт : 448 Кбит/сек
Каналы : 6 каналов
Расположение каналов : Front: L C R, Side: L R, LFE
Частота : 48,0 КГц
Частота кадров : 31,250 кадров/сек (1536 SPF)
Битовая глубина : 16 бит
Метод сжатия : С потерями
Задержка видео : -80 мс.
Размер потока : 341 Мбайт (5%)
Язык : Russian
ServiceKind/String : Complete Main


Display posts:    

Current time is: 23-Oct 01:40

All times are UTC ± 0


You cannot post new topics in this forum
You cannot reply to topics in this forum
You cannot edit your posts in this forum
You cannot delete your posts in this forum
You cannot vote in polls in this forum
You cannot attach files in this forum
You cannot download files in this forum

!ATTENTION!
The site does not give electronic versions of products, and is engaged only in a collecting and cataloguing of the references sent and published at a forum by our readers. If you are the legal owner of any submitted material and do not wish that the reference to it was in our catalogue, contact us and we shall immediately remove her. Files for an exchange on tracker are given by users of a site, and the administration does not bear the responsibility for their maintenance. The request to not fill in the files protected by copyrights, and also files of the illegal maintenance!