Ивановский Торрент трекер
Яндекс.Погода
 

[Quote]
HUNTER

Скайлайн 2 / Beyond Skyline- Год выпуска: 2017
Страна: Сингапур, Индонезия, Китай, Великобритания, Канада, США
Жанр: ужасы, фантастика, боевик, триллер, приключения
Продолжительность: 01:46:38
Перевод: Профессиональный (дублированный)
Субтитры: английские (полные)
Оригинальная аудиодорожка: английский-Режиссер: Лайам О’Доннелл / Liam O'Donnell-В ролях: Фрэнк Грилло, Бояна Новакович, Ико Уайс, Каллэн Мулвей, Валентайн Пайен, Бетти Гэбриел, Джек Чоссе, Кевин О’Доннелл, Крис Т. Адамс, Тони Блэк.-Описание: В мире — хаос и паника. Небо закрыли нависающие над городами космические корабли, которые через огромные столпы света затягивают к себе на борт тысячи людей прямо с улиц. Чтобы найти похищенного сына, бесстрашному детективу придётся проникнуть на корабль агрессивных пришельцев, отбить атаку этих разъярённых тварей и... попытаться вернуть планету землянам.-Рейтинг
kinopoisk.ru 5.228 (5416)
imdb.com 5.40 (6923)
-Тип релиза: BDRip 720p
Контейнер: MKV | Sample
Видео: 1280x536 at 23.976 fps, [email protected], 2pass, ~6010 kbps avg
Аудио 1: Russian 48 kHz, DTS, 3/2 (L,C,R,l,r) + LFE ch, ~1509.00 kbps avg | Дубляж BD RUS
Аудио 2: English 48 kHz, DTS, 3/2 (L,C,R,l,r) + LFE ch, ~1509.00 kbps avg | Original
Формат субтитров: softsub (SRT)

Mediainfo

Формат : Matroska
Версия формата : Version 4 / Version 2
Размер файла : 6,72 Гбайт
Продолжительность : 1 ч. 46 м.
Общий поток : 9014 Кбит/сек
Название фильма : Скайлайн 2 / Beyond Skyline (2017)
Дата кодирования : UTC 2018-03-11 15:03:44
Программа кодирования : mkvmerge v16.0.0 ('Protest') 32-bit
Библиотека кодирования : libebml v1.3.5 + libmatroska v1.4.8
Видео
Идентификатор : 1
Формат : AVC
Формат/Информация : Advanced Video Codec
Профиль формата : [email protected]
Настройки формата : CABAC / 12 Ref Frames
Параметр CABAC формата : Да
Параметр RefFrames формата : 12 кадров
Идентификатор кодека : V_MPEG4/ISO/AVC
Продолжительность : 1 ч. 46 м.
Битрейт : 6010 Кбит/сек
Ширина : 1280 пикселей
Высота : 536 пикселей
Соотношение сторон : 2,40:1
Режим частоты кадров : Постоянный
Частота кадров : 23,976 (24000/1001) кадра/сек
Цветовое пространство : YUV
Субдискретизация насыщенности : 4:2:0
Битовая глубина : 8 бит
Тип развёртки : Прогрессивная
Бит/(Пиксели*Кадры) : 0.365
Размер потока : 4,46 Гбайт (66%)
Заголовок : BDRip 720p
Библиотека кодирования : x264 core 148 r2705 3f5ed56
Настройки программы : cabac=1 / ref=12 / deblock=1:-3:-3 / analyse=0x3:0x133 / me=umh / subme=11 / psy=1 / psy_rd=1.05:0.05 / mixed_ref=1 / me_range=32 / chroma_me=1 / trellis=2 / 8x8dct=1 / cqm=0 / deadzone=21,11 / fast_pskip=0 / chroma_qp_offset=-3 / threads=12 / lookahead_threads=2 / sliced_threads=0 / nr=0 / decimate=0 / interlaced=0 / bluray_compat=0 / constrained_intra=0 / bframes=8 / b_pyramid=2 / b_adapt=2 / b_bias=0 / direct=3 / weightb=1 / open_gop=0 / weightp=2 / keyint=240 / keyint_min=23 / scenecut=40 / intra_refresh=0 / rc_lookahead=50 / rc=2pass / mbtree=0 / bitrate=6010 / ratetol=1.0 / qcomp=0.60 / qpmin=0 / qpmax=69 / qpstep=4 / cplxblur=20.0 / qblur=0.5 / vbv_maxrate=50000 / vbv_bufsize=62500 / nal_hrd=none / filler=0 / ip_ratio=1.40 / pb_ratio=1.30 / aq=3:0.80
Язык : English
Default : Да
Forced : Нет
Аудио #1
Идентификатор : 2
Формат : DTS
Формат/Информация : Digital Theater Systems
Режим : 16
Параметр Endianness формата : Big
Идентификатор кодека : A_DTS
Продолжительность : 1 ч. 46 м.
Вид битрейта : Постоянный
Битрейт : 1509 Кбит/сек
Каналы : 6 каналов
Расположение каналов : Front: L C R, Side: L R, LFE
Частота : 48,0 КГц
Частота кадров : 93,750 кадра/сек (512 SPF)
Битовая глубина : 24 бит
Метод сжатия : С потерями
Размер потока : 1,12 Гбайт (17%)
Заголовок : Дубляж BD RUS
Язык : Russian
Default : Да
Forced : Нет
Аудио #2
Идентификатор : 3
Формат : DTS
Формат/Информация : Digital Theater Systems
Режим : 16
Параметр Endianness формата : Big
Идентификатор кодека : A_DTS
Продолжительность : 1 ч. 46 м.
Вид битрейта : Постоянный
Битрейт : 1509 Кбит/сек
Каналы : 6 каналов
Расположение каналов : Front: L C R, Side: L R, LFE
Частота : 48,0 КГц
Частота кадров : 93,750 кадра/сек (512 SPF)
Битовая глубина : 24 бит
Метод сжатия : С потерями
Размер потока : 1,12 Гбайт (17%)
Заголовок : Original
Язык : English
Default : Нет
Forced : Нет
Текст
Идентификатор : 4
Формат : UTF-8
Идентификатор кодека : S_TEXT/UTF8
Идентификатор кодека/Информация : UTF-8 Plain Text
Продолжительность : 1 ч. 41 м.
Битрейт : 30 бит/сек
ElementCount : 835
Размер потока : 23,0 Кбайт (0%)
Заголовок : Full
Язык : English
Default : Нет
Forced : Нет
Меню
00:00:00.000 : en:00:00:00.000
00:07:42.587 : en:00:07:42.587
00:16:46.172 : en:00:16:46.172
00:24:08.947 : en:00:24:08.947
00:33:19.998 : en:00:33:19.998
00:42:11.112 : en:00:42:11.112
00:51:07.439 : en:00:51:07.439
00:59:55.717 : en:00:59:55.717
01:08:09.627 : en:01:08:09.627
01:18:35.961 : en:01:18:35.961
01:26:59.089 : en:01:26:59.089
01:35:50.453 : en:01:35:50.453

Скриншоты



Display posts:    

Current time is: 21-Oct 17:35

All times are UTC ± 0


You cannot post new topics in this forum
You cannot reply to topics in this forum
You cannot edit your posts in this forum
You cannot delete your posts in this forum
You cannot vote in polls in this forum
You cannot attach files in this forum
You cannot download files in this forum

!ATTENTION!
The site does not give electronic versions of products, and is engaged only in a collecting and cataloguing of the references sent and published at a forum by our readers. If you are the legal owner of any submitted material and do not wish that the reference to it was in our catalogue, contact us and we shall immediately remove her. Files for an exchange on tracker are given by users of a site, and the administration does not bear the responsibility for their maintenance. The request to not fill in the files protected by copyrights, and also files of the illegal maintenance!