Ивановский Торрент трекер
Яндекс.Погода
 

[Quote]
HUNTER

Шлепни ее, она француженка / Slap Her, She's French!
Страна: Германия, Великобритания, США
Жанр: мелодрама, комедия
Год выпуска: 2002
Продолжительность: 01:28:40
Перевод: Профессиональный (двухголосый закадровый) Союз Видео
Субтитры: английские
Оригинальная аудиодорожка: английский
Режиссер: Мелани Мейрон / Melanie Mayron
В ролях: Пайпер Перабо, Джейн МакГрегор, Трент Форд, Джули Уайт, Брэндон Смит, Джесси Джеймс, Никки Эйкокс, Александра Ади, Мэтт Зукри, Кристен Коппен...
Описание: У Старлы есть все, что хотела бы иметь любая девушка в ее возрасте. Она — королева красоты маленького техасского городка и капитан болельщиц школьной футбольной команды. Но вот в ее доме появляется Женевьева — застенчивая студентка-француженка, приехавшая по культурному обмену из Парижа.
Пока ничего не подозревающая Старла знакомит «мадемуазель невинность» со своими друзьями и родственниками, Женевьева тайно готовит коварный план по свержению королевы с ее трона, лестью и хитростью завоевывая дружбу одноклассников Старлы, расположение ее родителей и сердце ее жениха.
Доп. информация: На DVD другая версия фильма, версия WEB-DL на 3 минуты короче. Синхронизация звука - Dreven.
Сэмпл: http://sendfile.su/1399883
Тип релиза: WEB-DL 1080p
Контейнер: MKV
Видео: 1912x1072 (16:9), 23.976 fps, AVC, ~5191 Kbps, 0.106 bits/pixel
Аудио 1: Russian, 48.0 KHz, AC3, 2 ch, 192 Kbps - Союз Видео
Аудио 2: English, 48.0 KHz, AAC LC, 2 ch, 128 Kbps
Формат субтитров: softsub (SRT)

MediaInfo

General
Unique ID : 171926479080264213369733612047963324425 (0x8157D5DEB31240074E025E1C1C110009)
Complete name : C:\Slap Her, She's French! WEB-DL 1080p.mkv
Format : Matroska
Format version : Version 4 / Version 2
File size : 3.48 GiB
Duration : 1 h 28 min
Overall bit rate : 5 617 kb/s
Movie name :
Encoded date : UTC 2018-02-01 10:49:44
Writing application : mkvmerge v19.0.0 ('Brave Captain') 64-bit
Writing library : libebml v1.3.5 + libmatroska v1.4.8
Video
ID : 1
Format : AVC
Format/Info : Advanced Video Codec
Format profile : [email protected]
Format settings : CABAC / 4 Ref Frames
Format settings, CABAC : Yes
Format settings, ReFrames : 4 frames
Codec ID : V_MPEG4/ISO/AVC
Duration : 1 h 28 min
Bit rate : 5 295 kb/s
Width : 1 912 pixels
Height : 1 072 pixels
Display aspect ratio : 16:9
Frame rate mode : Constant
Frame rate : 23.976 (23976/1000) FPS
Color space : YUV
Chroma subsampling : 4:2:0
Bit depth : 8 bits
Scan type : Progressive
Bits/(Pixel*Frame) : 0.108
Stream size : 3.28 GiB (94%)
Language : English
Default : Yes
Forced : No
Color range : Limited
Color primaries : BT.709
Transfer characteristics : BT.709
Matrix coefficients : BT.709
Audio #1
ID : 2
Format : AC-3
Format/Info : Audio Coding 3
Codec ID : A_AC3
Duration : 1 h 28 min
Bit rate mode : Constant
Bit rate : 192 kb/s
Channel(s) : 2 channels
Channel positions : Front: L R
Sampling rate : 48.0 kHz
Frame rate : 31.250 FPS (1536 SPF)
Bit depth : 16 bits
Compression mode : Lossy
Stream size : 122 MiB (3%)
Title : Союз Видео
Language : Russian
Service kind : Complete Main
Default : Yes
Forced : No
Audio #2
ID : 3
Format : AAC
Format/Info : Advanced Audio Codec
Format profile : LC
Codec ID : A_AAC-2
Duration : 1 h 28 min
Bit rate : 127 kb/s
Channel(s) : 2 channels
Channel positions : Front: L R
Sampling rate : 48.0 kHz
Frame rate : 46.875 FPS (1024 SPF)
Compression mode : Lossy
Stream size : 80.6 MiB (2%)
Language : English
Default : No
Forced : No
Text
ID : 4
Format : UTF-8
Codec ID : S_TEXT/UTF8
Codec ID/Info : UTF-8 Plain Text
Duration : 1 h 26 min
Bit rate : 73 b/s
Count of elements : 1584
Stream size : 46.3 KiB (0%)
Language : English
Default : No
Forced : No
Menu
00:00:00.000 : en:Main Titles/Crucial Footsteps
00:04:27.000 : en:The Splendona Community
00:10:09.000 : en:Romance & Meat
00:14:36.000 : en:Smiling At Yourself
00:19:35.000 : en:The Center Of Attention
00:24:55.000 : en:Totally Titanic
00:30:51.000 : en:Fame By Association
00:36:48.000 : en:All Made Up
00:41:21.000 : en:Stepping In
00:47:03.000 : en:Girl Fight
00:52:51.000 : en:Role Reversal
00:57:25.000 : en:Tripping In French
01:04:36.000 : en:The Real Genevieve
01:13:23.000 : en:Missing Girl
01:18:34.000 : en:The Starla I Know
01:23:42.000 : en:Bonjour Y'All/End Credits

Скриншоты



Display posts:    

Current time is: 23-Oct 17:19

All times are UTC ± 0


You cannot post new topics in this forum
You cannot reply to topics in this forum
You cannot edit your posts in this forum
You cannot delete your posts in this forum
You cannot vote in polls in this forum
You cannot attach files in this forum
You cannot download files in this forum

!ATTENTION!
The site does not give electronic versions of products, and is engaged only in a collecting and cataloguing of the references sent and published at a forum by our readers. If you are the legal owner of any submitted material and do not wish that the reference to it was in our catalogue, contact us and we shall immediately remove her. Files for an exchange on tracker are given by users of a site, and the administration does not bear the responsibility for their maintenance. The request to not fill in the files protected by copyrights, and also files of the illegal maintenance!