Ивановский Торрент трекер
Яндекс.Погода
 

[Quote]
HUNTER

Рок
Страна: Россия
Студия: ВГИК-Дебют
Жанр: драма, приключения
Год выпуска: 2017
Продолжительность: 01:27:03
Перевод: Не требуется
Субтитры: нет
Оригинальная аудиодорожка: русский
Режиссер: Иван Шахназаров
В ролях: Дмитрий Чеботарёв, Иван Ивашкин, Кирилл Фролов, Никита Тарасов, Виталий Кищенко, Евгений Стычкин, Валерий Жуков, Георгий Пицхелаури, Евгений Мундум, Полина Северная, Елена Сафронова

Описание: «Рок» — музыкальный жанр или злая судьба? Героев фильма, которые отправились покорять Москву, сопровождает и то, и другое. Эта троица даже еще не группа и не команда и, наверное, не друзья. Но так было в начале пути. Чем дальше ребята удаляются от дома, чем опаснее их приключения и встреченные на пути люди, тем сильнее они меняются внутренне. Этот путь стал самым большим, ярким, опасным и незабываемым приключением в жизни молодых провинциальных музыкантов.
Кинопоиск
Sample
Тип релиза: WEB-DL 1080p
Контейнер: MKV
Видео: MPEG4 AVC Video, H264, 1912x796, 23.976 fps, 4477 kbps
Аудио: Russian (AC3, 6 ch, 384 kbps, 16 bits, 48.0 KHz) - оригинал

MediaInfo

General
Unique ID : 189666908203999758263385906506451037359 (0x8EB0848E572763DFB54DC3A8AE02ACAF)
Complete name : D:\Рок 2017 WEB-DL 1080p.mkv
Format : Matroska
Format version : Version 2
File size : 3.02 GiB
Duration : 1h 27mn
Overall bit rate : 4 959 Kbps
Encoded date : UTC 2018-02-21 19:27:17
Writing application : mkvmerge v8.3.0 ('Over the Horizon') 64bit
Writing library : libebml v1.3.1 + libmatroska v1.4.2
DURATION : 01:27:03.680000000
NUMBER_OF_FRAMES : 163240
NUMBER_OF_BYTES : 250736640
_STATISTICS_WRITING_APP : mkvmerge v8.3.0 ('Over the Horizon') 64bit
_STATISTICS_WRITING_DATE_UTC : 2018-02-21 19:27:17
_STATISTICS_TAGS : BPS DURATION NUMBER_OF_FRAMES NUMBER_OF_BYTES
Video
ID : 1
Format : AVC
Format/Info : Advanced Video Codec
Format profile : [email protected]
Format settings, CABAC : Yes
Format settings, ReFrames : 5 frames
Codec ID : V_MPEG4/ISO/AVC
Duration : 1h 27mn
Bit rate : 4 477 Kbps
Width : 1 912 pixels
Height : 796 pixels
Display aspect ratio : 2.40:1
Frame rate mode : Constant
Frame rate : 23.976 fps
Color space : YUV
Chroma subsampling : 4:2:0
Bit depth : 8 bits
Scan type : Progressive
Bits/(Pixel*Frame) : 0.123
Stream size : 2.72 GiB (90%)
Language : English
Default : Yes
Forced : No
Color primaries : BT.709
Transfer characteristics : BT.709
Matrix coefficients : BT.709
Audio
ID : 2
Format : AC-3
Format/Info : Audio Coding 3
Mode extension : CM (complete main)
Format settings, Endianness : Big
Codec ID : A_AC3
Duration : 1h 27mn
Bit rate mode : Constant
Bit rate : 384 Kbps
Channel count : 6 channels
Channel positions : Front: L C R, Side: L R, LFE
Sampling rate : 48.0 KHz
Bit depth : 16 bits
Compression mode : Lossy
Stream size : 239 MiB (8%)
Language : Russian
Default : Yes
Forced : No
Menu
00:00:00.000 : en:1
00:01:47.000 : en:2
00:11:15.000 : en:3
00:19:38.000 : en:4
00:27:54.000 : en:5
00:37:20.000 : en:6
00:48:12.000 : en:7
00:58:35.000 : en:8
01:08:08.000 : en:9
01:15:52.000 : en:10
01:24:02.000 : en:11

Скриншоты




Display posts:    

Current time is: 23-Oct 17:14

All times are UTC ± 0


You cannot post new topics in this forum
You cannot reply to topics in this forum
You cannot edit your posts in this forum
You cannot delete your posts in this forum
You cannot vote in polls in this forum
You cannot attach files in this forum
You cannot download files in this forum

!ATTENTION!
The site does not give electronic versions of products, and is engaged only in a collecting and cataloguing of the references sent and published at a forum by our readers. If you are the legal owner of any submitted material and do not wish that the reference to it was in our catalogue, contact us and we shall immediately remove her. Files for an exchange on tracker are given by users of a site, and the administration does not bear the responsibility for their maintenance. The request to not fill in the files protected by copyrights, and also files of the illegal maintenance!