Ивановский Торрент трекер
Яндекс.Погода
 

[Quote]
HUNTER

Air Crash Investigation / Mayday / Расследования авиакатастроф / сезон 18 (серии 01-06 из 10)
Год выпуска: 2018
Страна: Канада
Жанр: документальный
Продолжительность: ~ 00:44:00
Перевод: Профессиональный (двухголосый закадровый)
Русские субтитры: нет
Описание: Сериал о наиболее громких и загадочных катастрофах в истории гражданской авиации.
Наиболее полную информацию о сериале можно получить здесь List of Mayday episodes, для фанатов рекомендую именно этот сайт.
Есть русская, более лаконичная версия Список эпизодов телесериала «Расследования авиакатастроф»
Снимался канадской студией Cineflix в партнерстве с Discovery Channel (Canada), Canal D (Canada), and National Geographic Channel (US & International).
Доп. информация: Видеоматериал предоставил StomperX
Сэмпл: https://www.sendspace.com/file/k4l37p
Качество: DVB
формат: MPG
Видео: 720х[email protected]х576 (1,78:1), 25 fps, mpeg2 ~2654 kbps avg, 0.256 bit/pixel
Аудио 1: Russian (48 KHz, MP2, 2 ch, ~192 Kbps) (двухголосый)
Аудио 2: English (48 KHz, MP2, 2 ch, ~192 Kbps) (двухголосый)
сезон 14 DVB
сезон 15 DVB
сезон 16 DVB
сезон 17 DVB
сезоны 1-15 HDRip (MKV)
сезоны 1-15 HD 720p (MKV)

Список выпусков/серий

18-01. Гайки и болты (Nuts and bolts)
18-02. С ума сойти (Blown away)
18-03. Фатальная рассеянность (Deadly distraction)
18-04. Смертоносное небо (Deadly airspace)
18-05. Смертельная демонстрация (Deadly display)
18-06. Смертельная миссия (Deadly mission)

MediaInfo

Общее
Полное имя : D:\КИНО\Air Crash Investigation season 18\18-01. Гайки и болты (Nuts and bolts).mpg
Формат : MPEG-PS
Размер файла : 977 Мбайт
Продолжительность : 44 м. 2 с.
Режим общего битрейта : Переменный
Общий поток : 3102 Кбит/сек
Видео
Идентификатор : 224 (0xE0)
Формат : MPEG Video
Версия формата : Version 2
Профиль формата : [email protected]
Параметр BVOP формата : Да
Параметр матрицы формата : По умолчанию
Параметр GOP формата : M=3, N=15
Структура изображения : Frame
Продолжительность : 44 м. 2 с.
Вид битрейта : Переменный
Битрейт : 2656 Кбит/сек
Максимальный битрейт : 2800 Кбит/сек
Ширина : 720 пикселей
Высота : 576 пикселей
Соотношение сторон : 16:9
Частота кадров : 25,000 кадров/сек
Стандарт вещания : PAL
Цветовое пространство : YUV
Субдискретизация насыщенности : 4:2:0
Битовая глубина : 8 бит
Тип развёртки : Чересстрочная
Порядок развёртки : Верхнее поле первое
Метод сжатия : С потерями
Бит/(Пиксели*Кадры) : 0.256
Временной код первого кадра : 00:00:00:00
Оригинал временного кода : Group of pictures header
GOP, открыто/закрыто : Открыто
GOP, открыто/закрыто на первом кадре : Закрыто
Размер потока : 837 Мбайт (86%)
Аудио #1
Идентификатор : 192 (0xC0)
Формат : MPEG Audio
Версия формата : Version 1
Профиль формата : Layer 2
Продолжительность : 44 м. 2 с.
Вид битрейта : Постоянный
Битрейт : 192 Кбит/сек
Каналы : 2 канала
Частота : 48,0 КГц
Метод сжатия : С потерями
Задержка видео : 1 мс.
Размер потока : 60,5 Мбайт (6%)
Аудио #2
Идентификатор : 193 (0xC1)
Формат : MPEG Audio
Версия формата : Version 1
Профиль формата : Layer 2
Продолжительность : 44 м. 2 с.
Вид битрейта : Постоянный
Битрейт : 192 Кбит/сек
Каналы : 2 канала
Частота : 48,0 КГц
Метод сжатия : С потерями
Задержка видео : 1 мс.
Размер потока : 60,5 Мбайт (6%)
Общее
Полное имя : D:\КИНО\Air Crash Investigation season 18\Air Crash Investigation season 18.torrent
Размер файла : 19,5 Кбайт

Скриншоты

Внимание! Раздача ведётся путём добавления новых выпусков

Внимание! Раздача ведётся путём добавления новых выпусков; при каждом добавлении создаётся новый торрент. Чтобы начать докачку нового выпуска, пользователям необходимо сделать следующее:
(1) остановить скачивание,
(2) удалить старый торрент у себя из клиента (старые серии удалять не надо),
(3) скачать новый торрент и запустить его у себя в клиенте вместо старого, при этом указать клиенту путь в старую папку куда и должно происходить скачивание новых выпусков.
Ваш клиент при этом должен произвести хеширование (проверку) старой папки (если не производит сам - помогите ему сделать это). В результате он будет докачивать только те выпуски, которых у Вас ещё нет. Старые выпуски при этом не удаляются, а продолжают раздаваться!
Eсли Вы уже удалили старые выпуски, то предотвратить их повторную закачку можно, сняв галочки в соответствующих местах при запуске нового торрента. По возможности, желательно не удалять старые выпуски как можно дольше, чтобы релизёр не только продолжал раздавать старые выпуски, но и смог сконцентрироваться на новых.


Display posts:    

Current time is: 23-Oct 01:45

All times are UTC ± 0


You cannot post new topics in this forum
You cannot reply to topics in this forum
You cannot edit your posts in this forum
You cannot delete your posts in this forum
You cannot vote in polls in this forum
You cannot attach files in this forum
You cannot download files in this forum

!ATTENTION!
The site does not give electronic versions of products, and is engaged only in a collecting and cataloguing of the references sent and published at a forum by our readers. If you are the legal owner of any submitted material and do not wish that the reference to it was in our catalogue, contact us and we shall immediately remove her. Files for an exchange on tracker are given by users of a site, and the administration does not bear the responsibility for their maintenance. The request to not fill in the files protected by copyrights, and also files of the illegal maintenance!