Ивановский Торрент трекер
Яндекс.Погода
 

[Quote]
HUNTER

Приключения Бабушки / Провал "Голубой змеи" / Aventurile lui Babusca Страна: Румыния
Студия: Румыния (Romania Film)
Жанр: криминал, детский
Год выпуска: 1973
Продолжительность: 01:17:00
Перевод: Одноголосый закадровый (Семен Ващенко)
Субтитры: русские
Оригинальная аудиодорожка: румынский
Режиссер: Георге Наги / Gheorghe Naghi
В ролях: Габриель Наку / Gabriel Nacu (Babusca), Хориа Зугрэвеску / Horia Zugravescu (Scatiul), Mircea Anghelescu, Ioana Ciomartan, Emil Hossu, Paul Ioachim, Ion Marinescu, Mihai Mereuta, Gheorghe Naghi, Amza Pellea, Emanoil Petrut, Constantin Rautchi, Lazar Vrabie
Описание: Фильм по роману П.Лускалова "Волчий остров". Двое мальчишек, живущих в дельте Дуная, оказываются в эпицентре событий, связанных с международной торговлей наркотиками.Доп. информация: Перевод - Наталья ЧукановаОзвучание - Семён Ващенко
Создание субтитров - Berendey
Сведение звука и сборка DVD - Diablo
Организация перевода и озвучания - Minhers76
Релиз:
Меню: есть,озвученное
Тип релиза: DVD5 (Custom)
Контейнер: DVD-Video
Видео: PAL 4:3 (720x576) VBR
Аудио: AC3, 2/0 (L,R) ch, 192 kbps, Delay 0 mSec
Аудио 2: AC3, 2/0 (L,R) ch, 192 kbps, Delay 0 mSec

MediaInfo

Общее
Полное имя : F:\МОИ ВИДЕО ЗАПИСИ DViX, AVi, MPG4\DVD ПЕРЕВЕДЕННЫЕ НА РУССКИЙ\Приключения Бабушки Провал Голубой змеи Aventurile lui Babusca (1973) Румыния DVD - 5\Aventurile lui Babusca (1973)\VIDEO_TS\VTS_01_2.VOB
Формат : MPEG-PS
Размер файла : 1024 Мбайт
Продолжительность : 21 м.
Режим общего битрейта : Переменный
Общий поток : 6513 Кбит/сек
Видео
Идентификатор : 224 (0xE0)
Формат : MPEG Video
Версия формата : Version 2
Профиль формата : [email protected]
Параметр BVOP формата : Да
Параметр матрицы формата : Выборочная
Параметр GOP формата : M=3, N=12
Структура изображения : Frame
Продолжительность : 21 м.
Вид битрейта : Переменный
Битрейт : 6000 Кбит/сек
Ширина : 720 пикселей
Высота : 576 пикселей
Соотношение сторон : 4:3
Частота кадров : 25,000 кадров/сек
Стандарт вещания : PAL
Цветовое пространство : YUV
Субдискретизация насыщенности : 4:2:0
Битовая глубина : 8 бит
Тип развёртки : Чересстрочная
Порядок развёртки : Нижнее поле первое
Метод сжатия : С потерями
Бит/(Пиксели*Кадры) : 0.579
Временной код первого кадра : 00:21:58:14
Оригинал временного кода : Group of pictures header
GOP, открыто/закрыто : Закрыто
Размер потока : 943 Мбайт (92%)
Основные цвета : BT.601 PAL
Характеристики трансфера : BT.470 System B, BT.470 System G
Коэффициенты матрицы : BT.601
Аудио #1
Идентификатор : 189 (0xBD)-128 (0x80)
Формат : AC-3
Формат/Информация : Audio Coding 3
Расширение режима : CM (complete main)
Параметр Endianness формата : Big
Режим смешивания : DVD-Video
Продолжительность : 21 м.
Вид битрейта : Постоянный
Битрейт : 192 Кбит/сек
Каналы : 2 канала
Расположение каналов : Front: L R
Частота : 48,0 КГц
Частота кадров : 31,250 кадров/сек (1536 spf)
Метод сжатия : С потерями
Задержка видео : -256 мс.
Размер потока : 30,2 Мбайт (3%)
Аудио #2
Идентификатор : 189 (0xBD)-129 (0x81)
Формат : AC-3
Формат/Информация : Audio Coding 3
Расширение режима : CM (complete main)
Параметр Endianness формата : Big
Режим смешивания : DVD-Video
Продолжительность : 21 м.
Вид битрейта : Постоянный
Битрейт : 192 Кбит/сек
Каналы : 2 канала
Расположение каналов : Front: L R
Частота : 48,0 КГц
Частота кадров : 31,250 кадров/сек (1536 spf)
Метод сжатия : С потерями
Задержка видео : -256 мс.
Размер потока : 30,2 Мбайт (3%)
Текст
Идентификатор : 189 (0xBD)-32 (0x20)
Формат : RLE
Формат/Информация : Run-length encoding
Режим смешивания : DVD-Video

Скриншоты меню

DVDINFO

Title: F:\МОИ ВИДЕО ЗАПИСИ DViX, AVi, MPG4\DVD ПЕРЕВЕДЕННЫЕ НА РУССКИЙ\Приключения Бабушки Провал Голубой змеи Aventurile lui Babusca (1973) Румыния DVD - 5\Aventurile lui Babusca (1973)
Size: 3.52 Gb ( 3 687 512,00 KBytes ) - DVD-5
Enabled regions: 1, 2, 3, 4, 5, 6, 7, 8
VTS_01 :
Play Length: 01:17:00
Video: PAL 4:3 (720x576) VBR
Audio:
Russian, AC3, 2/0 (L,R) ch, 192 kbps, Delay 0 mSec
Romanian, AC3, 2/0 (L,R) ch, 192 kbps, Delay 0 mSec
Subtitles:
Russian
VTS_02 :
Play Length: 00:00:12
Video: PAL 4:3 (720x576) VBR
Audio:
Romanian, AC3, 2/0 (L,R) ch, 192 kbps, Delay -208 mSec


Display posts:    

Current time is: 17-Oct 03:16

All times are UTC ± 0


You cannot post new topics in this forum
You cannot reply to topics in this forum
You cannot edit your posts in this forum
You cannot delete your posts in this forum
You cannot vote in polls in this forum
You cannot attach files in this forum
You cannot download files in this forum

!ATTENTION!
The site does not give electronic versions of products, and is engaged only in a collecting and cataloguing of the references sent and published at a forum by our readers. If you are the legal owner of any submitted material and do not wish that the reference to it was in our catalogue, contact us and we shall immediately remove her. Files for an exchange on tracker are given by users of a site, and the administration does not bear the responsibility for their maintenance. The request to not fill in the files protected by copyrights, and also files of the illegal maintenance!