Ивановский Торрент трекер
Яндекс.Погода
 

[Quote]
HUNTER

Послушница / Novitiate
Страна: США
Студия: Maven Pictures, Novitiate Productions
Жанр: драма
Год выпуска: 2017
Продолжительность: 02:03:21
Перевод: Профессиональный (многоголосый закадровый) | SDI Media
Субтитры: нет
Оригинальная аудиодорожка: английский
Режиссер: Маргарет Беттс / Margaret Betts
В ролях: Дианна Агрон, Маргарет Куэлли, Мелисса Лео, Джулианна Николсон, Лиана Либерато, Морган Сэйлор, Дэнис О Хэр, Элайн Пауэлл, Крис Зилка, Мэдди Хассон
Описание: В начале 60-х, во время проведения Второго ватиканского совета, молодая послушница изо всех сил старается справиться с проблемами веры, с изменениями в церкви и с собственной сексуальностью.
| IMDB | КиноПоиск | Сэмпл |
Тип релиза: BDRip 720p
Контейнер: MKV
Видео: MPEG-4 AVC Video 5592 kbps 1280x536 / 23,976 fps / High Profile 4.1
Аудио 1: Dolby Digital Audio Russian 448 kbps 5.1 / 48 kHz / 448 kbps
Аудио 2: Dolby Digital Audio English 640 kbps 5.1 / 48 kHz / 640 kbps
Дополнительно: Сохранены оригинальные чаптеры

MediaInfo

Формат : Matroska
Версия формата : Version 2
Размер файла : 5,87 Гбайт
Продолжительность : 2 ч. 3 м.
Общий поток : 6816 Кбит/сек
Дата кодирования : UTC 2018-02-19 17:40:12
Программа кодирования : mkvmerge v8.3.0 ('Over the Horizon') 64bit
Библиотека кодирования : libebml v1.3.1 + libmatroska v1.4.2
Видео
Идентификатор : 1
Формат : AVC
Формат/Информация : Advanced Video Codec
Профиль формата : [email protected]
Настройки формата : CABAC / 12 Ref Frames
Параметр CABAC формата : Да
Параметр RefFrames формата : 12 кадров
Идентификатор кодека : V_MPEG4/ISO/AVC
Продолжительность : 2 ч. 3 м.
Битрейт : 5592 Кбит/сек
Ширина : 1280 пикселей
Высота : 536 пикселей
Соотношение сторон : 2,40:1
Режим частоты кадров : Постоянный
Частота кадров : 23,976 (24000/1001) кадра/сек
Цветовое пространство : YUV
Субдискретизация насыщенности : 4:2:0
Битовая глубина : 8 бит
Тип развёртки : Прогрессивная
Бит/(Пиксели*Кадры) : 0.340
Размер потока : 4,82 Гбайт (82%)
Библиотека кодирования : x264 core 152 r2851kMod ba24899
Настройки программы : cabac=1 / ref=12 / deblock=1:-3:-3 / analyse=0x3:0x133 / me=umh / subme=10 / psy=1 / fade_compensate=0.00 / psy_rd=1.00:0.00 / mixed_ref=1 / me_range=32 / chroma_me=1 / trellis=2 / 8x8dct=1 / cqm=0 / deadzone=21,11 / fast_pskip=0 / chroma_qp_offset=-2 / threads=17 / lookahead_threads=2 / sliced_threads=0 / nr=0 / decimate=1 / interlaced=0 / bluray_compat=0 / constrained_intra=0 / bframes=9 / b_pyramid=2 / b_adapt=2 / b_bias=0 / direct=1 / weightb=1 / open_gop=0 / weightp=2 / keyint=240 / keyint_min=23 / scenecut=40 / intra_refresh=0 / rc_lookahead=60 / rc=crf / mbtree=0 / crf=15.4000 / qcomp=0.60 / qpmin=0 / qpmax=69 / qpstep=4 / vbv_maxrate=50000 / vbv_bufsize=62500 / crf_max=0.0 / nal_hrd=none / filler=0 / ip_ratio=1.35 / pb_ratio=1.25 / aq=3:0.80
Язык : English
Default : Да
Forced : Нет
Аудио #1
Идентификатор : 2
Формат : AC-3
Формат/Информация : Audio Coding 3
Идентификатор кодека : A_AC3
Продолжительность : 2 ч. 3 м.
Вид битрейта : Постоянный
Битрейт : 448 Кбит/сек
Каналы : 6 каналов
Расположение каналов : Front: L C R, Side: L R, LFE
Частота : 48,0 КГц
Частота кадров : 31,250 кадров/сек (1536 SPF)
Битовая глубина : 16 бит
Метод сжатия : С потерями
Размер потока : 395 Мбайт (7%)
Язык : Russian
ServiceKind/String : Complete Main
Default : Да
Forced : Нет
Аудио #2
Идентификатор : 3
Формат : AC-3
Формат/Информация : Audio Coding 3
Идентификатор кодека : A_AC3
Продолжительность : 2 ч. 3 м.
Вид битрейта : Постоянный
Битрейт : 640 Кбит/сек
Каналы : 6 каналов
Расположение каналов : Front: L C R, Side: L R, LFE
Частота : 48,0 КГц
Частота кадров : 31,250 кадров/сек (1536 SPF)
Битовая глубина : 16 бит
Метод сжатия : С потерями
Размер потока : 565 Мбайт (9%)
Язык : English
ServiceKind/String : Complete Main
Default : Нет
Forced : Нет
Меню
00:00:00.000 : en:
00:05:22.489 : en:
00:10:18.618 : en:
00:15:55.955 : en:
00:25:24.398 : en:
00:34:16.221 : en:
00:44:55.234 : en:
00:53:58.735 : en:
01:06:48.087 : en:
01:13:00.793 : en:
01:18:13.063 : en:
01:25:47.517 : en:
01:34:25.618 : en:
01:39:01.102 : en:
01:44:47.072 : en:
01:51:33.145 : en:

Скриншоты



Display posts:    

Current time is: 23-Oct 02:25

All times are UTC ± 0


You cannot post new topics in this forum
You cannot reply to topics in this forum
You cannot edit your posts in this forum
You cannot delete your posts in this forum
You cannot vote in polls in this forum
You cannot attach files in this forum
You cannot download files in this forum

!ATTENTION!
The site does not give electronic versions of products, and is engaged only in a collecting and cataloguing of the references sent and published at a forum by our readers. If you are the legal owner of any submitted material and do not wish that the reference to it was in our catalogue, contact us and we shall immediately remove her. Files for an exchange on tracker are given by users of a site, and the administration does not bear the responsibility for their maintenance. The request to not fill in the files protected by copyrights, and also files of the illegal maintenance!