Ивановский Торрент трекер
Яндекс.Погода
 

[Quote]
HUNTER

Последний портрет / Final Portrait
Страна: Великобритания
Студия: Potboiler Productions
Жанр: драма, комедия, биография
Год выпуска: 2017
Продолжительность: 01:29:51
Перевод: Профессиональный (многоголосый закадровый) iTunes
Субтитры: нет
Оригинальная аудиодорожка: нет
Режиссер: Стэнли Туччи / Stanley Tucci
В ролях: Арми Хаммер, Клеманс Поэзи, Тони Шэлуб, Джеффри Раш, Джеймс Фолкнер, Сильви Тестю, Бегона Ф. Мартин, Керри Шейл, Филипп Сполл, Мартин Мейджер
Описание: История о закате жизни одного из виднейших художников ХХ века — Альберто Джакометти. Париж начала 60-х, Альберто Джакометти окружен признанием коллег, интересом любовницы и ревностью жены. Чахнущий над своими доходами и уставший от предсказуемой жизни, художник находит покой в компании Джеймса Лорда — позирующего ему критика. Запланированный портрет не готов и через две недели: двое проводят много времени вместе, обсуждают искусство и работу, дышат свежим воздухом города на Сене.
| IMDB | КиноПоиск | Сэмпл |
Тип релиза: WEB-DL 1080p
Контейнер: MKV
Видео: MPEG-4 AVC, 4606 Kb/s, 1920x804, 24,000 fps
Аудио: AC3 / 5.1 / 48 kHz / 384 Kb/s
Дополнительно: Сохранены оригинальные чаптеры

MediaInfo

Код:Формат : Matroska
Версия формата : Version 4 / Version 2
Размер файла : 3,13 Гбайт
Продолжительность : 1 ч. 29 м.
Общий поток : 4992 Кбит/сек
Дата кодирования : UTC 2018-02-14 14:01:15
Программа кодирования : mkvmerge v9.5.0 ('Quiet Fire') 64bit
Библиотека кодирования : libebml v1.3.4 + libmatroska v1.4.5
Видео
Идентификатор : 1
Формат : AVC
Формат/Информация : Advanced Video Codec
Профиль формата : [email protected]
Настройки формата : CABAC / 5 Ref Frames
Параметр CABAC формата : Да
Параметр RefFrames формата : 5 кадров
Идентификатор кодека : V_MPEG4/ISO/AVC
Продолжительность : 1 ч. 29 м.
Битрейт : 4606 Кбит/сек
Ширина : 1920 пикселей
Высота : 804 пикселя
Соотношение сторон : 2,40:1
Режим частоты кадров : Постоянный
Частота кадров : 24,000 кадра/сек
Цветовое пространство : YUV
Субдискретизация насыщенности : 4:2:0
Битовая глубина : 8 бит
Тип развёртки : Прогрессивная
Бит/(Пиксели*Кадры) : 0.124
Размер потока : 2,89 Гбайт (92%)
Язык : English
Default : Да
Forced : Нет
Цветовой диапазон : Limited
Основные цвета : BT.709
Характеристики трансфера : BT.709
Коэффициенты матрицы : BT.709
Аудио
Идентификатор : 2
Формат : AC-3
Формат/Информация : Audio Coding 3
Идентификатор кодека : A_AC3
Продолжительность : 1 ч. 29 м.
Вид битрейта : Постоянный
Битрейт : 384 Кбит/сек
Каналы : 6 каналов
Расположение каналов : Front: L C R, Side: L R, LFE
Частота : 48,0 КГц
Частота кадров : 31,250 кадров/сек (1536 SPF)
Битовая глубина : 16 бит
Метод сжатия : С потерями
Размер потока : 247 Мбайт (8%)
Язык : Russian
ServiceKind/String : Complete Main
Default : Да
Forced : Нет
Меню
00:00:00.000 : en:Глава 1
00:07:49.833 : en:Глава 2
00:14:33.374 : en:Глава 3
00:21:55.832 : en:Глава 4
00:27:23.957 : en:Глава 5
00:32:46.540 : en:Глава 6
00:39:41.290 : en:Глава 7
00:45:46.956 : en:Глава 8
00:53:43.039 : en:Глава 9
01:00:03.539 : en:Глава 10
01:06:42.497 : en:Глава 11
01:11:57.830 : en:Глава 12
01:20:32.705 : en:Глава 13

Скриншоты с названием

Скриншоты



Display posts:    

Current time is: 22-Oct 00:34

All times are UTC ± 0


You cannot post new topics in this forum
You cannot reply to topics in this forum
You cannot edit your posts in this forum
You cannot delete your posts in this forum
You cannot vote in polls in this forum
You cannot attach files in this forum
You cannot download files in this forum

!ATTENTION!
The site does not give electronic versions of products, and is engaged only in a collecting and cataloguing of the references sent and published at a forum by our readers. If you are the legal owner of any submitted material and do not wish that the reference to it was in our catalogue, contact us and we shall immediately remove her. Files for an exchange on tracker are given by users of a site, and the administration does not bear the responsibility for their maintenance. The request to not fill in the files protected by copyrights, and also files of the illegal maintenance!