Ивановский Торрент трекер
Яндекс.Погода
 

[Quote]
HUNTER

Последний богатырь Страна: Россия
Студия: Кинослово, Walt Disney Pictures, Yellow, Black & White
Жанр: комедия, семейный, фэнтези
Год выпуска: 2017
Продолжительность: 01:53:58
Перевод: Не требуется
Субтитры: русские, английские
Оригинальная аудиодорожка: русский
Режиссер: Дмитрий Дьяченко
В ролях: Виктор Хориняк, Мила Сивацкая, Екатерина Вилкова, Елена Яковлева, Константин Лавроненко, Евгений Дятлов, Александр Семчев, Сергей Бурунов, Александр Кухаренко, Марина Калецкая
Описание: Иван, обычный парень, по воле случая переносится из современной Москвы в фантастическую страну Белогорье. В этом параллельном мире живут герои русских сказок, волшебство — неотъемлемая часть быта, а спорные вопросы решаются битвой на богатырских мечах. Неожиданно Иван оказывается в самом центре борьбы светлых и темных сил, вот только непонятно, почему главная роль в происходящих событиях, по всеобщему мнению, уготована именно ему.
| IMDB | КиноПоиск | Сэмпл |
Тип релиза: BDRip 720p
Контейнер: MKV
Видео: MPEG-4 AVC Video 6396 kbps 1280x536 / 24 fps / High Profile 4.1
Аудио: Dolby Digital Audio Russian 448 kbps 5.1 / 48 kHz / 448 kbps
Дополнительно: Сохранены оригинальные чаптеры
Формат субтитров: prerendered (Blu-ray/PGS/SUP)

MediaInfo

Код:Формат : Matroska
Версия формата : Version 2
Размер файла : 5,46 Гбайт
Продолжительность : 1 ч. 53 м.
Общий поток : 6859 Кбит/сек
Дата кодирования : UTC 2018-02-14 15:34:19
Программа кодирования : mkvmerge v8.3.0 ('Over the Horizon') 64bit
Библиотека кодирования : libebml v1.3.1 + libmatroska v1.4.2
Видео
Идентификатор : 1
Формат : AVC
Формат/Информация : Advanced Video Codec
Профиль формата : [email protected]
Настройки формата : CABAC / 4 Ref Frames
Параметр CABAC формата : Да
Параметр RefFrames формата : 4 кадра
Идентификатор кодека : V_MPEG4/ISO/AVC
Продолжительность : 1 ч. 53 м.
Битрейт : 6396 Кбит/сек
Ширина : 1280 пикселей
Высота : 536 пикселей
Соотношение сторон : 2,40:1
Режим частоты кадров : Постоянный
Частота кадров : 24,000 кадра/сек
Цветовое пространство : YUV
Субдискретизация насыщенности : 4:2:0
Битовая глубина : 8 бит
Тип развёртки : Прогрессивная
Бит/(Пиксели*Кадры) : 0.388
Размер потока : 5,09 Гбайт (93%)
Язык : Russian
Default : Да
Forced : Нет
Аудио
Идентификатор : 2
Формат : AC-3
Формат/Информация : Audio Coding 3
Идентификатор кодека : A_AC3
Продолжительность : 1 ч. 53 м.
Вид битрейта : Постоянный
Битрейт : 448 Кбит/сек
Каналы : 6 каналов
Расположение каналов : Front: L C R, Side: L R, LFE
Частота : 48,0 КГц
Частота кадров : 31,250 кадров/сек (1536 SPF)
Битовая глубина : 16 бит
Метод сжатия : С потерями
Размер потока : 365 Мбайт (7%)
Язык : Russian
ServiceKind/String : Complete Main
Default : Да
Forced : Нет
Текст #1
Идентификатор : 3
Формат : PGS
Режим смешивания : zlib
Идентификатор кодека : S_HDMV/PGS
Идентификатор кодека/Информация : Picture based subtitle format used on BDs/HD-DVDs
Продолжительность : 1 ч. 45 м.
Битрейт : 7975 бит/сек
ElementCount : 2077
Размер потока : 6,01 Мбайт (0%)
Язык : English
Default : Нет
Forced : Нет
Текст #2
Идентификатор : 4
Формат : PGS
Режим смешивания : zlib
Идентификатор кодека : S_HDMV/PGS
Идентификатор кодека/Информация : Picture based subtitle format used on BDs/HD-DVDs
Продолжительность : 1 ч. 45 м.
Битрейт : 6940 бит/сек
ElementCount : 1767
Размер потока : 5,23 Мбайт (0%)
Язык : Russian
Default : Нет
Forced : Нет
Меню
00:00:00.000 : en:
00:14:59.000 : en:
00:32:41.000 : en:
00:50:55.458 : en:
01:06:16.458 : en:
01:24:54.458 : en:
01:38:13.000 : en:

Скриншот названия

Скриншоты



Display posts:    

Current time is: 21-Oct 23:38

All times are UTC ± 0


You cannot post new topics in this forum
You cannot reply to topics in this forum
You cannot edit your posts in this forum
You cannot delete your posts in this forum
You cannot vote in polls in this forum
You cannot attach files in this forum
You cannot download files in this forum

!ATTENTION!
The site does not give electronic versions of products, and is engaged only in a collecting and cataloguing of the references sent and published at a forum by our readers. If you are the legal owner of any submitted material and do not wish that the reference to it was in our catalogue, contact us and we shall immediately remove her. Files for an exchange on tracker are given by users of a site, and the administration does not bear the responsibility for their maintenance. The request to not fill in the files protected by copyrights, and also files of the illegal maintenance!