Ивановский Торрент трекер
Яндекс.Погода
 

[Quote]
HUNTER

Полуночный человек / The Midnight Man
Страна: США, Канада
Студия: Scooty Woop Entertainment, Midnight Productions, Bridge Finance Company
Жанр: ужасы
Год выпуска: 2017
Продолжительность: 01:29:12
Перевод: Профессиональный (дублированный) | iTunes
Субтитры: нет
Оригинальная аудиодорожка: нет
Режиссер: Трэвис Заривны / Travis Zariwny
В ролях: Лин Шэй, Габриэль Хоф, Грэйсон Сзакакс, Эмили Хейн, Саммер Х. Хауэлл, Луиз Линтон, Майкл Сироу, Роберт Инглунд, Логан Креран, Калли Лэйн
Описание: На чердаке своей бабушки Алекс и ее друзья находят игру, с помощью которой можно вызвать Полуночного человека. Это опасное существо умеет воплощать самые худшие кошмары тех, кто к нему обращается.
| IMDB | КиноПоиск | Сэмпл |
Тип релиза: WEB-DL 1080p
Контейнер: MKV
Видео: MPEG-4 AVC Video 4477 Kbps 1920x804 / 23,976 fps
Аудио: Dolby Digital Audio Russian 384 kbps 5.1 / 48 kHz
Дополнительно: Сохранены оригинальные чаптеры

MediaInfo

Формат : Matroska
Версия формата : Version 2
Размер файла : 3,09 Гбайт
Продолжительность : 1 ч. 29 м.
Общий поток : 4960 Кбит/сек
Дата кодирования : UTC 2018-02-21 18:38:01
Программа кодирования : mkvmerge v8.3.0 ('Over the Horizon') 64bit
Библиотека кодирования : libebml v1.3.1 + libmatroska v1.4.2
Видео
Идентификатор : 1
Формат : AVC
Формат/Информация : Advanced Video Codec
Профиль формата : [email protected]
Настройки формата : CABAC / 5 Ref Frames
Параметр CABAC формата : Да
Параметр RefFrames формата : 5 кадров
Идентификатор кодека : V_MPEG4/ISO/AVC
Продолжительность : 1 ч. 29 м.
Битрейт : 4477 Кбит/сек
Ширина : 1920 пикселей
Высота : 804 пикселя
Соотношение сторон : 2,40:1
Режим частоты кадров : Постоянный
Частота кадров : 25,000 кадров/сек
Цветовое пространство : YUV
Субдискретизация насыщенности : 4:2:0
Битовая глубина : 8 бит
Тип развёртки : Прогрессивная
Бит/(Пиксели*Кадры) : 0.116
Размер потока : 2,79 Гбайт (90%)
Язык : English
Default : Да
Forced : Нет
Цветовой диапазон : Limited
Основные цвета : BT.709
Характеристики трансфера : BT.709
Коэффициенты матрицы : BT.709
Аудио
Идентификатор : 2
Формат : AC-3
Формат/Информация : Audio Coding 3
Идентификатор кодека : A_AC3
Продолжительность : 1 ч. 29 м.
Вид битрейта : Постоянный
Битрейт : 384 Кбит/сек
Каналы : 6 каналов
Расположение каналов : Front: L C R, Side: L R, LFE
Частота : 48,0 КГц
Частота кадров : 31,250 кадров/сек (1536 SPF)
Битовая глубина : 16 бит
Метод сжатия : С потерями
Размер потока : 245 Мбайт (8%)
Язык : Russian
ServiceKind/String : Complete Main
Default : Да
Forced : Нет
Меню
00:00:00.000 : en:Глава 1
00:07:07.680 : en:Глава 2
00:15:08.000 : en:Глава 3
00:20:13.440 : en:Глава 4
00:25:35.440 : en:Глава 5
00:31:26.720 : en:Глава 6
00:36:44.560 : en:Глава 7
00:43:35.880 : en:Глава 8
00:49:03.280 : en:Глава 9
00:55:52.000 : en:Глава 10
01:00:31.200 : en:Глава 11
01:06:11.480 : en:Глава 12
01:12:34.800 : en:Глава 13
01:17:59.840 : en:Глава 14

Скриншоты



Display posts:    

Current time is: 23-Oct 17:05

All times are UTC ± 0


You cannot post new topics in this forum
You cannot reply to topics in this forum
You cannot edit your posts in this forum
You cannot delete your posts in this forum
You cannot vote in polls in this forum
You cannot attach files in this forum
You cannot download files in this forum

!ATTENTION!
The site does not give electronic versions of products, and is engaged only in a collecting and cataloguing of the references sent and published at a forum by our readers. If you are the legal owner of any submitted material and do not wish that the reference to it was in our catalogue, contact us and we shall immediately remove her. Files for an exchange on tracker are given by users of a site, and the administration does not bear the responsibility for their maintenance. The request to not fill in the files protected by copyrights, and also files of the illegal maintenance!