Ивановский Торрент трекер
Яндекс.Погода
 

[Quote]
HUNTER

Похищение лунного камня / Million Dollar Moon Rock Heist
Дата/Год выпуска: 2011
Страна: США, National Geographic
Жанр: Документальный, криминал, космос
Продолжительность: 00:44:58
Перевод: Студийный (одноголосый закадровый)
Режиссер: Джереми Бристоу / Jeremy Bristow
Телеканал: National Geographic
Описание: 3 июля 2002 года 25-летний стажер НАСА, Тэд Робертс и его сообщники ворвались в Космический центр Джонсона в Хьюстоне, штат Техас, и украли бесценную породу Луны, собранную во время полета на луну во время миссии Apollo много лет назад. Стоимость 101 грамма лунной породы на черном рынке составляет миллионы долларов. Однако Робертс утверждал, что украл эту ценную породу, чтобы произвести впечатление на свою напарницу, Триффани Фовлер, с которой у него был роман, чтобы они могли говорить, что были первыми людьми, которые «занимались любовью на луне» - в буквальном смысле, на украденной породе. В то время, когда начались поиски камня, Робертс продолжал работать в NASA и вел себя как ни в чем не было, обсуждая при этом условия продажи породы бельгийскому коллекционеру минералов Акселу Эммерманну, который параллельно тайно сотрудничал с ФБР по делу розыска пропажи. Однако, когда камень наконец был найден, образцы горных пород были слишком загрязненными, а записи, содержащие более 30 лет кропотливого исследования лунного камня, были потеряны навсегда.
Доп. информация: Авторство релиза - alf62

качество: SATRip
формат: AVI
Видео: 720x400 (1.80:1), 25 fps, XviD build 73 ~1898 kbps avg, 0.26 bit/pixel
Аудио 1: Русский, 48 kHz, AC3 Dolby Digital, 2/0 (L,R) ch, ~192.00 kbps avg
Аудио 2: Английский, 48 kHz, AC3 Dolby Digital, 2/0 (L,R) ch, ~192.00 kbps avg

MediaInfo

Общее
Полное имя : E:\Запись\луна\NG.Похищение.лунного.камня.2011.XviD.SATRip.alf62.avi
Формат : AVI
Формат/Информация : Audio Video Interleave
Размер файла : 739 Мбайт
Продолжительность : 44 м.
Общий поток : 2298 Кбит/сек
Программа кодирования : VirtualDubModRus 1.5.10.2 (build 2542/release)
Библиотека кодирования : VirtualDubMod build 2542/release
Видео
Идентификатор : 0
Формат : MPEG-4 Visual
Профиль формата : Advanced [email protected]
Параметр BVOP формата : 2
Параметр QPel формата : Нет
Параметр GMC формата : Без точки перехода
Параметр матрицы формата : Default (MPEG)
Идентификатор кодека : XVID
Идентификатор кодека/Подсказка : XviD
Продолжительность : 44 м.
Битрейт : 1900 Кбит/сек
Ширина : 720 пикселей
Высота : 400 пикселей
Соотношение сторон : 16:9
Частота кадров : 25,000 кадров/сек
Цветовое пространство : YUV
Субдискретизация насыщенности : 4:2:0
Битовая глубина : 8 бит
Тип развёртки : Прогрессивная
Метод сжатия : С потерями
Бит/(Пиксели*Кадры) : 0.264
Размер потока : 611 Мбайт (83%)
Библиотека кодирования : XviD 73
Аудио #1
Идентификатор : 1
Формат : AC-3
Формат/Информация : Audio Coding 3
Расширение режима : CM (complete main)
Параметр Endianness формата : Big
Идентификатор кодека : 2000
Продолжительность : 44 м.
Вид битрейта : Постоянный
Битрейт : 192 Кбит/сек
Каналы : 2 канала
Расположение каналов : Front: L R
Частота : 48,0 КГц
Битовая глубина : 16 бит
Метод сжатия : С потерями
Размер потока : 61,8 Мбайт (8%)
Выравнивание : Разделение по промежуткам
Продолжительность промежутка : 40 мс. (1,00 видеокадр)
Время предзагрузки промежутка : 500 мс.
Аудио #2
Идентификатор : 2
Формат : AC-3
Формат/Информация : Audio Coding 3
Расширение режима : CM (complete main)
Параметр Endianness формата : Big
Идентификатор кодека : 2000
Продолжительность : 44 м.
Вид битрейта : Постоянный
Битрейт : 192 Кбит/сек
Каналы : 2 канала
Расположение каналов : Front: L R
Частота : 48,0 КГц
Битовая глубина : 16 бит
Метод сжатия : С потерями
Размер потока : 61,8 Мбайт (8%)
Выравнивание : Разделение по промежуткам
Продолжительность промежутка : 40 мс. (1,00 видеокадр)
Время предзагрузки промежутка : 500 мс.

Скриншоты



Display posts:    

Current time is: 23-Oct 01:08

All times are UTC ± 0


You cannot post new topics in this forum
You cannot reply to topics in this forum
You cannot edit your posts in this forum
You cannot delete your posts in this forum
You cannot vote in polls in this forum
You cannot attach files in this forum
You cannot download files in this forum

!ATTENTION!
The site does not give electronic versions of products, and is engaged only in a collecting and cataloguing of the references sent and published at a forum by our readers. If you are the legal owner of any submitted material and do not wish that the reference to it was in our catalogue, contact us and we shall immediately remove her. Files for an exchange on tracker are given by users of a site, and the administration does not bear the responsibility for their maintenance. The request to not fill in the files protected by copyrights, and also files of the illegal maintenance!