Ивановский Торрент трекер
Яндекс.Погода
 

[Quote]
HUNTER

Плюшевый монстр / Лино / Lino: Uma Aventura de Sete Vidas
«Поймай удачу за хвост!»
- Год выхода: 2017
Выпущено: Бразилия / Start Desenhos Animados
Жанр: мультфильм, семейный
Продолжительность: 01:32:25
Перевод: Профессиональный (полное дублирование)
Субтитры: нет-Режиссер:
Рафаэль Рибас / Rafael Ribas-В ролях:
Селтон Мелу, Дира Паис, Паола Оливейра, Луис Карлос Де Мораес, Гильерме Лопес, Хелио Рибейро, Лупа Мабузе, Лео Рабело, Марсело Чепа, Рейнальдо Родригес-О фильме:
Жизнь Лино — молодого парня, работающего аниматором в детском саду, — кажется беспросветной: его дом того и гляди развалится, девушки его не любят, а на работе целый день терроризируют дети. Отчаявшись, он решается обратиться к одному незадачливому магу, который обещает найти выход из любой ситуации. И маг находит способ кардинально изменить жизнь Лино. Однако с колдовством что-то пошло не так, и Лино превратился в огромного кота-монстра. Как всё вернуть назад и стать счастливым?-Релиз групп | | IMDB | КиноПоиск | Сэмпл |-Качество: WEB-DLRip [ WEB-DL 720p]
Формат: AVI
Видео: 704x400 (1.76:1), 24.000 fps, XviD build 67 ~1861 kbps avg, 0.28 bit/pixel
Аудио: 48 kHz, AC3 Dolby Digital, 3/2 (L,C,R,l,r) + LFE ch, ~384 kbps avg - iTunes Russia-

Скриншоты


MediaInfo

Код:Общее
Полное имя : D:\Plushevyi_monstr_2017_WEB-DLRip_iT_by_Dalemake.avi
Формат : AVI
Формат/Информация : Audio Video Interleave
Размер файла : 1,46 Гбайт
Продолжительность : 1 ч. 32 м.
Общий поток : 2255 Кбит/сек
Программа кодирования : VirtualDubMod 1.5.10.3 | www.virtualdub-fr.org || (build 2550/release)
Библиотека кодирования : VirtualDubMod build 2550/release
Видео
Идентификатор : 0
Формат : MPEG-4 Visual
Профиль формата : Advanced [email protected]
Параметр BVOP формата : 1
Параметр QPel формата : Нет
Параметр GMC формата : Без точки перехода
Параметр матрицы формата : Выборочная
Идентификатор кодека : XVID
Идентификатор кодека/Подсказка : XviD
Продолжительность : 1 ч. 32 м.
Битрейт : 1861 Кбит/сек
Ширина : 704 пикселя
Высота : 400 пикселей
Соотношение сторон : 16:9
Частота кадров : 24,000 кадра/сек
Цветовое пространство : YUV
Субдискретизация насыщенности : 4:2:0
Битовая глубина : 8 бит
Тип развёртки : Прогрессивная
Метод сжатия : С потерями
Бит/(Пиксели*Кадры) : 0.275
Размер потока : 1,20 Гбайт (83%)
Библиотека кодирования : XviD 67
Аудио
Идентификатор : 1
Формат : AC-3
Формат/Информация : Audio Coding 3
Расширение режима : CM (complete main)
Параметр Endianness формата : Big
Идентификатор кодека : 2000
Продолжительность : 1 ч. 32 м.
Вид битрейта : Постоянный
Битрейт : 384 Кбит/сек
Каналы : 6 каналов
Расположение каналов : Front: L C R, Side: L R, LFE
Частота : 48,0 КГц
Битовая глубина : 16 бит
Метод сжатия : С потерями
Размер потока : 254 Мбайт (17%)
Выравнивание : Разделение по промежуткам
Продолжительность промежутка : 42 мс. (1,00 видеокадр)
Время предзагрузки промежутка : 500 мс.
-


Display posts:    

Current time is: 23-Oct 18:10

All times are UTC ± 0


You cannot post new topics in this forum
You cannot reply to topics in this forum
You cannot edit your posts in this forum
You cannot delete your posts in this forum
You cannot vote in polls in this forum
You cannot attach files in this forum
You cannot download files in this forum

!ATTENTION!
The site does not give electronic versions of products, and is engaged only in a collecting and cataloguing of the references sent and published at a forum by our readers. If you are the legal owner of any submitted material and do not wish that the reference to it was in our catalogue, contact us and we shall immediately remove her. Files for an exchange on tracker are given by users of a site, and the administration does not bear the responsibility for their maintenance. The request to not fill in the files protected by copyrights, and also files of the illegal maintenance!