Ивановский Торрент трекер
Яндекс.Погода
 

[Quote]
HUNTER

Плюшевый монстр / Лино / Lino: Uma Aventura de Sete Vidas
Страна: Бразилия | Start Desenhos Animados
Жанр: мультфильм, семейный
Продолжительность: 01:32:25
Год выпуска: 2017
Перевод: Профессиональный (дублированный) | iTunes
Русские субтитры: нет
Режиссёр: Рафаэль Рибас / Rafael Ribas
Роли озвучивали: Селтон Мелу, Дира Паис, Паола Оливейра, Луис Карлос Де Мораес, Гильерме Лопес, Хелио Рибейро, Лупа Мабузе, Лео Рабело, Марсело Чепа, Рейнальдо Родригес
Описание: Жизнь Лино — молодого парня, работающего аниматором в детском саду, — кажется беспросветной: его дом того и гляди развалится, девушки его не любят, а на работе целый день терроризируют дети. Отчаявшись, он решается обратиться к одному незадачливому магу, который обещает найти выход из любой ситуации. И маг находит способ кардинально изменить жизнь Лино. Однако с колдовством что-то пошло не так, и Лино превратился в огромного кота-монстра. Как всё вернуть назад и стать счастливым?
| IMDB | КиноПоиск | Сэмпл |
Качество: WEB-DL 1080p
Формат: MKV
Видео: MPEG-4 AVC Video 5014 Kbps 1920x1080 / 24,000 fps
Аудио: Dolby Digital Audio Russian 384 kbps 5.1 / 48 kHz
Субтитры: отсутствуют
Дополнительнo: Сохранены оригинальные главы

Подробные технические данные

Формат                                   : Matroska
Версия формата : Version 4 / Version 2
Размер файла : 3,56 Гбайт
Продолжительность : 1 ч. 32 м.
Общий поток : 5508 Кбит/сек
Название фильма : Плюшевый монстр / Lino: Uma Aventura de Sete Vidas (2017) Web-DL 1080p [BC] -iT
Дата кодирования : UTC 2018-03-01 07:12:05
Программа кодирования : mkvmerge v20.0.0 ('I Am The Sun') 64-bit
Библиотека кодирования : libebml v1.3.5 + libmatroska v1.4.8
Attachments : 1033911_1080p.jpg
Видео
Идентификатор : 1
Формат : AVC
Формат/Информация : Advanced Video Codec
Профиль формата : [email protected]
Настройки формата : CABAC / 4 Ref Frames
Параметр CABAC формата : Да
Параметр RefFrames формата : 4 кадра
Параметр GOP формата : N=1
Идентификатор кодека : V_MPEG4/ISO/AVC
Продолжительность : 1 ч. 32 м.
Битрейт : 5014 Кбит/сек
Ширина : 1920 пикселей
Высота : 1080 пикселей
Соотношение сторон : 16:9
Режим частоты кадров : Постоянный
Частота кадров : 24,000 кадра/сек
Цветовое пространство : YUV
Субдискретизация насыщенности : 4:2:0
Битовая глубина : 8 бит
Тип развёртки : Прогрессивная
Бит/(Пиксели*Кадры) : 0.101
Размер потока : 3,24 Гбайт (91%)
Заголовок : Lino: Uma Aventura de Sete Vidas.2017.Web-DL.1080p.BC -iTunes
Язык : English
Default : Да
Forced : Нет
Цветовой диапазон : Limited
Основные цвета : BT.709
Характеристики трансфера : BT.709
Коэффициенты матрицы : BT.709
Аудио
Идентификатор : 2
Формат : AC-3
Формат/Информация : Audio Coding 3
Идентификатор кодека : A_AC3
Продолжительность : 1 ч. 32 м.
Вид битрейта : Постоянный
Битрейт : 384 Кбит/сек
Каналы : 6 каналов
Расположение каналов : Front: L C R, Side: L R, LFE
Частота : 48,0 КГц
Частота кадров : 31,250 кадров/сек (1536 SPF)
Битовая глубина : 16 бит
Метод сжатия : С потерями
Размер потока : 254 Мбайт (7%)
Заголовок : iTunes
Язык : Russian
ServiceKind/String : Complete Main
Default : Да
Forced : Нет
Меню
00:00:00.000 : en:-01
00:06:52.583 : en:-02
00:13:23.291 : en:-03
00:21:18.999 : en:-04
00:27:58.624 : en:-05
00:32:29.124 : en:-06
00:37:39.540 : en:-07
00:42:07.915 : en:-08
00:48:17.748 : en:-09
00:53:18.206 : en:_10
00:58:31.497 : en:_11
01:03:52.538 : en:_12
01:10:49.413 : en:_13
01:17:48.913 : en:_14
01:22:02.871 : en:_15

Скриншоты



Display posts:    

Current time is: 21-Oct 18:23

All times are UTC ± 0


You cannot post new topics in this forum
You cannot reply to topics in this forum
You cannot edit your posts in this forum
You cannot delete your posts in this forum
You cannot vote in polls in this forum
You cannot attach files in this forum
You cannot download files in this forum

!ATTENTION!
The site does not give electronic versions of products, and is engaged only in a collecting and cataloguing of the references sent and published at a forum by our readers. If you are the legal owner of any submitted material and do not wish that the reference to it was in our catalogue, contact us and we shall immediately remove her. Files for an exchange on tracker are given by users of a site, and the administration does not bear the responsibility for their maintenance. The request to not fill in the files protected by copyrights, and also files of the illegal maintenance!