Плохие парни / The Bad Guys (Пьер Перифел / Pierre Perifel) [2022, США, Мультфильм, комедия, криминал, приключения, семейный, WEB-DLRip] MVO (Jaskier) :: Российский Торрент трекер
Российский Торрент трекер
Яндекс.Погода
 

[Quote]
HUNTER

Плохие парни
The Bad Guys

-
Страна: США
Студия: DreamWorks Animation, Universal Pictures
Жанр: Мультфильм, комедия, криминал, приключения, семейный
Год выпуска: 2022
Продолжительность: 01:40:07
Перевод: Профессиональный (многоголосый закадровый) | Jaskier // tnx.KinoPub
Оригинальная аудиодорожка: нет
Субтитры: нет
Режиссер: Пьер Перифел / Pierre Perifel
В ролях:
Сэм Рокуэлл, Марк Мэрон, Аквафина, Крэйг Робинсон, Энтони Рамос, Ричард Айоади, Зази Битц, Алекс Борштейн, Лилли Сингх, Барбара Гудсон
Описание:
Мир еще не видел столь искусных авантюристов: ловкий карманник Мистер Волк, опытный взломщик сейфов Мистер Змей, хладнокровный мастер маскировки Мистер Акула, вспыльчивый и мускулистый Мистер Пиранья, а также остроумная хакер высшего класса Мисс Тарантула. Однако даже самые умные преступники иногда допускают ошибки. Чтобы спастись от неминуемый тюрьмы, главарь банды Мистер Волк вынужден идти на крайние меры: «Плохие парни» должны измениться в лучшую сторону. Или сделать вид? Но когда новый злодей угрожает городу, сможет ли Мистер Волк убедить остальных действительно стать… хорошими ребятами?
-
|| IMDb || КиноПоиск || Скачать сэмпл ||
-
Качество видео: WEB-DLRip (исходник: The.Bad.Guys.2022.1080p.AMZN.WEB-DL.DDP5.1.x264-CM)
Формат видео: AVI
Видео: 720x304 (2.35:1), 23.976 fps, XviD build 69 ~1637 kbps avg, 0.312 bit/pixel
Аудио: 48 kHz, AC3 Dolby Digital, 3/2 (L,C,R,l,r) + LFE ch, ~448 kbps | Многоголосый закадровый (Jaskier)

Текстовый отчет MediaInfo / DVDinfo / BDInfo

General
Complete name : D:\Plohie.parni.2022.WEB-DLRip.avi
Format : AVI
Format/Info : Audio Video Interleave
File size : 1.46 GiB
Duration : 1 h 40 min
Overall bit rate : 2 094 kb/s
Movie name : Плохие парни / The Bad Guys (2022) WEB-DLRip
Director : Пьер Перифел / Pierre Perifel
Genre : Мультфильм, комедия, крими
Writing application : VirtualDubMod 1.5.10.2 (build 2542/release)
Original source form/Name : Мультфильм
Copyright : США, DreamWorks Animation, Universal Pictures
Comment : Rip by vitolinform
Video
ID : 0
Format : MPEG-4 Visual
Format profile : Advanced [email protected]
Format settings : BVOP1 / Custom Matrix
Format settings, BVOP : 1
Format settings, QPel : No
Format settings, GMC : No warppoints
Format settings, Matrix : Custom
Codec ID : XVID
Codec ID/Hint : XviD
Duration : 1 h 40 min
Bit rate : 1 637 kb/s
Width : 720 pixels
Height : 304 pixels
Display aspect ratio : 2.35:1
Frame rate : 23.976 (24000/1001) FPS
Color space : YUV
Chroma subsampling : 4:2:0
Bit depth : 8 bits
Scan type : Progressive
Compression mode : Lossy
Bits/(Pixel*Frame) : 0.312
Stream size : 1.14 GiB (78%)
Writing library : XviD 69
Audio
ID : 1
Format : AC-3
Format/Info : Audio Coding 3
Commercial name : Dolby Digital
Codec ID : 2000
Duration : 1 h 40 min
Bit rate mode : Constant
Bit rate : 448 kb/s
Channel(s) : 6 channels
Channel layout : L R C LFE Ls Rs
Sampling rate : 48.0 kHz
Frame rate : 31.250 FPS (1536 SPF)
Compression mode : Lossy
Stream size : 321 MiB (21%)
Alignment : Split across interleaves
Interleave, duration : 42 ms (1.00 video frame)
Interleave, preload duration : 500 ms
Title : Russian (MVO, Jaskier // tnx.KinoPub)
Service kind : Complete Main

Скриншот c названием фильма

Скриншоты



Display posts:    

Current time is: 26-May 11:23

All times are UTC ± 0


You cannot post new topics in this forum
You cannot reply to topics in this forum
You cannot edit your posts in this forum
You cannot delete your posts in this forum
You cannot vote in polls in this forum
You cannot attach files in this forum
You cannot download files in this forum

!ATTENTION!
The site does not give electronic versions of products, and is engaged only in a collecting and cataloguing of the references sent and published at a forum by our readers. If you are the legal owner of any submitted material and do not wish that the reference to it was in our catalogue, contact us and we shall immediately remove her. Files for an exchange on tracker are given by users of a site, and the administration does not bear the responsibility for their maintenance. The request to not fill in the files protected by copyrights, and also files of the illegal maintenance!