Пиноккио. Правдивая история (Василий Ровенский) [2021, Россия, мультфильм, комедия, семейный, WEB-DLRip] Original Rus :: Российский Торрент трекер
Российский Торрент трекер
Яндекс.Погода
 

[Quote]
HUNTER

Пиноккио. Правдивая история
«Follow Your Dream»
- Страна: Россия
Жанр: мультфильм, комедия, семейный
Год выпуска: 2021
Продолжительность: 01:30:16-Оригинальная аудиодорожка: русский
Перевод: Не требуется
Субтитры: нет-Режиссер: Василий Ровенский-В ролях: Филипп Лебедев, Антон Эльдаров, Александр Гаврилин, Диомид Виноградов, Дмитрий Иосифов, Алексей Войтюк, Элиза Мартиросова, Ирина Киреева, Виталий Лойко-Описание: Юный Пиноккио, созданный руками плотника Джепетто, сбегает из дома гениального мастера, чтобы посмотреть мир, и прибивается к странствующему цирку под руководством коварного дельца Моджафоко. Сделав говорящую куклу Пиноккио гвоздем цирковой программы, он собирает в каждом городе полные залы, а в это время его помощники Кот и Лиса обчищают дома горожан. Но Пиноккио и понятия не имеет об этом. Он влюбляется в юную воздушную гимнастку Беллу, приемную дочь Моджафоко. Но у Пиноккио нет шансов добиться взаимности, ведь он кукла, а не человек. Старый клоун Фантоцци советует Пиноккио отправиться к колдунье Люсильде, которая знает, как ему помочь.-Сэмпл: http://multi-up.com/1291664- -Качество видео: WEB-DLRip от ELEKTRI4KА
Формат видео: AVI
Видео: 720x304 (2.35:1), 25 fps, XviD build 67 ~1976 kbps avg, 0.36 bit/pixel
Аудио: AC3, 48 kHz, 2 ch, 192 kbps - (КиноПоиск HD)

MediaInfo

General
Complete name : \Downloads\Pinnokkio.2021.WEB-DLRip.ELEKTRI4KA.UNIONGANG.avi
Format : AVI
Format/Info : Audio Video Interleave
File size : 1.37 GiB
Duration : 1 h 30 min
Overall bit rate : 2 178 kb/s
Writing application : VirtualDubMod 1.5.10.3 | www.virtualdub-fr.org || (build 2550/release)
Writing library : VirtualDubMod build 2550/release
Video #0
ID : 0
Format : MPEG-4 Visual
Format profile : Advanced [email protected]
Format settings : BVOP1
Format settings, BVOP : 1
Format settings, QPel : No
Format settings, GMC : No warppoints
Format settings, Matrix : Default (MPEG)
Codec ID : XVID
Codec ID/Hint : XviD
Duration : 1 h 30 min
Bit rate : 1 976 kb/s
Width : 720 pixels
Height : 304 pixels
Display aspect ratio : 2.35:1
Frame rate : 25.000 FPS
Color space : YUV
Chroma subsampling : 4:2:0
Bit depth : 8 bits
Scan type : Progressive
Compression mode : Lossy
Bits/(Pixel*Frame) : 0.361
Stream size : 1.25 GiB (91%)
Writing library : XviD 67
Audio #1
ID : 1
Format : AC-3
Format/Info : Audio Coding 3
Codec ID : 2000
Duration : 1 h 30 min
Bit rate mode : Constant
Bit rate : 192 kb/s
Channel(s) : 2 channels
Channel positions : Front: L R
Sampling rate : 48.0 kHz
Frame rate : 31.250 FPS (1536 SPF)
Bit depth : 16 bits
Compression mode : Lossy
Stream size : 124 MiB (9%)
Alignment : Split accross interleaves
Interleave, duration : 40 ms (1.00 video frame)
Interleave, preload duration : 500 ms
Service kind : Complete Main

Скриншот c названием фильма

Скриншоты



Display posts:    

Current time is: 26-May 10:38

All times are UTC ± 0


You cannot post new topics in this forum
You cannot reply to topics in this forum
You cannot edit your posts in this forum
You cannot delete your posts in this forum
You cannot vote in polls in this forum
You cannot attach files in this forum
You cannot download files in this forum

!ATTENTION!
The site does not give electronic versions of products, and is engaged only in a collecting and cataloguing of the references sent and published at a forum by our readers. If you are the legal owner of any submitted material and do not wish that the reference to it was in our catalogue, contact us and we shall immediately remove her. Files for an exchange on tracker are given by users of a site, and the administration does not bear the responsibility for their maintenance. The request to not fill in the files protected by copyrights, and also files of the illegal maintenance!