Российский Торрент трекер
Яндекс.Погода
 

[Quote]
HUNTER

От винта 2- Страна: Россия
Жанр: Детский, приключения, комедия, мультфильм
Продолжительность: 01:25:34
Год выпуска: 2021
Перевод: Не требуется
Русские субтитры: нет-Режиссёр: Ваге Саргсян-Роли озвучивали: Илья Зудин, Юлия Проскурякова, Игорь Богомазов, Вячеслав Даньков, Борис Токарев, Константин Карасик, Лина Иванова, Иван Породнов, Евгений Толоконников, Дмитрий Курта-Описание: Современные электролеты пришли на смену старой дизельной технике, и Витязь был отправлен в запас. Но когда на город нападают пришельцы, которые охотятся за энергией, Витязь вновь взмывает в небо, чтобы спасти землю. На новых виражах ему помогают старые добрые друзья и лайнер Молния, в которую он снова влюбляется как мальчишка.
Семпл: http://multi-up.com/1278815
Качество: WEBRip
Формат: AVI
Видео: 704x384 (1.85:1), 24 fps, XviD, 2093 Kbps, 0.323 bit/pixel
Аудио: AC3, 48 kHz, 2 ch, ~192.00 kbps avg
Субтитры: отсутствуют

MediaInfo

General
Complete name : Downloads\Ot.vinta.2.2021.WEBRip.1.37Gb.MegaPeer.avi
Format : AVI
Format/Info : Audio Video Interleave
File size : 1.37 GiB
Duration : 1 h 25 min
Overall bit rate : 2 295 kb/s
Writing application : VirtualDubModRus 1.5.10.2 (build 2542/release)
Writing library : VirtualDubMod build 2542/release
Video #0
ID : 0
Format : MPEG-4 Visual
Format profile : Advanced [email protected]
Format settings : BVOP1 / Custom Matrix
Format settings, BVOP : 1
Format settings, QPel : No
Format settings, GMC : No warppoints
Format settings, Matrix : Custom
Codec ID : XVID
Codec ID/Hint : XviD
Duration : 1 h 25 min
Bit rate : 2 093 kb/s
Width : 704 pixels
Height : 384 pixels
Display aspect ratio : 1.85:1
Frame rate : 24.000 FPS
Color space : YUV
Chroma subsampling : 4:2:0
Bit depth : 8 bits
Scan type : Progressive
Compression mode : Lossy
Bits/(Pixel*Frame) : 0.323
Stream size : 1.25 GiB (91%)
Writing library : XviD 73
Audio #1
ID : 1
Format : AC-3
Format/Info : Audio Coding 3
Codec ID : 2000
Duration : 1 h 25 min
Bit rate mode : Constant
Bit rate : 192 kb/s
Channel(s) : 2 channels
Channel positions : Front: L R
Sampling rate : 48.0 kHz
Frame rate : 31.250 FPS (1536 SPF)
Bit depth : 16 bits
Compression mode : Lossy
Stream size : 118 MiB (8%)
Alignment : Split accross interleaves
Interleave, duration : 42 ms (1.00 video frame)
Interleave, preload duration : 500 ms
Service kind : Complete Main[/pre]

Скриншоты



Display posts:    

Current time is: 05-Dec 22:30

All times are UTC ± 0


You cannot post new topics in this forum
You cannot reply to topics in this forum
You cannot edit your posts in this forum
You cannot delete your posts in this forum
You cannot vote in polls in this forum
You cannot attach files in this forum
You cannot download files in this forum

!ATTENTION!
The site does not give electronic versions of products, and is engaged only in a collecting and cataloguing of the references sent and published at a forum by our readers. If you are the legal owner of any submitted material and do not wish that the reference to it was in our catalogue, contact us and we shall immediately remove her. Files for an exchange on tracker are given by users of a site, and the administration does not bear the responsibility for their maintenance. The request to not fill in the files protected by copyrights, and also files of the illegal maintenance!