Охотник на монстров в 3Д / Monster Hunter 3D (Пол У. С. Андерсон / Paul W.S. Anderson) [2020, фэнтези, боевик, приключения, BDRip, 1080p] OverUnder / Вертикальная стереопара (лицензия) :: Российский Торрент трекер
Российский Торрент трекер
Яндекс.Погода
 

[Quote]
HUNTER

Охотник на монстров / Monster Hunter
Год выпуска: 2020
Страна: США, Китай, Германия, Япония
Жанр: фэнтези, боевик, приключения
Продолжительность: 01:43:07
Перевод: Профессиональный дублированный (лицензия)
Русские субтитры: нет
Режиссер на русском: Пол У. С. Андерсон / Paul W.S. Anderson
В ролях: Милла Йовович, Тони Джа, Рон Перлман, Ти-Ай, Диего Бонета, Миган Гуд, Джош Хелман, Джин О-Юн, Хирона Ямадзаки, Янник Шуманн
Описание: Параллельно нашему миру существует иной — мир, где правят крайне опасные и наделенные невероятной силой монстры. Именно сюда через пространственный портал попадают лейтенант Артемис и ее отряд элитных бойцов. И теперь им предстоит проверить себя на прочность перед лицом невиданной ранее угрозы. Пытаясь выжить и найти дорогу домой, Артемис объединяется с местным Охотником, который научился выживать в этих враждебных землях. Вместе им предстоит вступить в схватку с ужасающими монстрами, не знающими страха и жалости.
Сэмпл: http://sendfile.su/1626856
Качество: BDrip
Контейнер: MKV
Формат 3D: OverUnder / Вертикальная стереопара
Порядок ракурсов: левый ракурс первый
Видео кодек: x264
Аудио кодек: AC3
Видео: AVC / [email protected] / 23,976 fps / 1920х2160 / 14,8 Мбит/сек
Аудио: Русский / AC3 / 48 KHz / 5.1 ch / 640 Кбит/сек(лицензия)
Аудио 2: Английский / AC3 / 48 KHz / 5.1 ch / 640 Кбит/сек
ВНИМАНИЕ ! На встроенных ТВ-плеерах работать не будет!!!
ТВ Samsung в названии которого есть надпись Ultra HD , и LG Ultra HD 800 серии, LG C6P, Xiaomi Mi TV 2, GRUNDIG VLE 8474 BL, Samsung UE48H6200AK, SUPRA STV-LC42ST960UL00 воспроизводят полные стереопары встроенными плеерами
Железные плееры на которых воспроизводятся полные стереопары:Popcorn C-200, Popcorn a-400, Dune HD Smart D1 , Dune HD DUO , Dune HD Smart H1 , Dune HD Smart B1 , Dune HD Max , Dune HD TV-303D, Dune HD TV-102, Dune HD Base 3D, Philips HMP7001, Aura HD, MECOOL BB2, Zidoo x9s, Lake I Cloud, MiBox 3
Чтобы изображение было на весь экран в плеере выставляем, если рип 1920х1600 - то выставляем 2.35:1 , если 1920х2160 - то выставляем 16:9

MediaInfo

Общее
Уникальный идентификатор : 225378768728906967805798402149985224808 (0xA98E5F3845F86C9580114EA34F9B0868)
Полное имя : F:\ISO\Monster Hunter.Rip by SeRoGa00.mkv
Формат : Matroska
Версия формата : Version 2
Размер файла : 11,8 Гбайт
Продолжительность : 1 ч. 43 м.
Общий поток : 16,4 Мбит/сек
Дата кодирования : UTC 2021-11-16 11:27:41
Программа кодирования : mkvmerge v3.4.0 ('Rapunzel') сборка от May 15 2010 09:38:20
Библиотека кодирования : libebml v0.8.0 + libmatroska v0.9.0
Видео
Идентификатор : 1
Формат : AVC
Формат/Информация : Advanced Video Codec
Профиль формата : [email protected]
Параметр CABAC формата : Да
Параметр ReFrames формата : 4 кадра
Идентификатор кодека : V_MPEG4/ISO/AVC
Продолжительность : 1 ч. 43 м.
Битрейт : 14,8 Мбит/сек
Ширина : 1920 пикселей
Высота : 2160 пикселей
Соотношение сторон : 0,889
Частота кадров : 23,976 кадра/сек
Цветовое пространство : YUV
Субдискретизация насыщенности : 4:2:0
Битовая глубина : 8 бит
Тип развёртки : Прогрессивная
Бит/(Пиксели*Кадры) : 0.149
Размер потока : 10,7 Гбайт (90%)
Заголовок : Rip by SeRoGa00
Библиотека кодирования : x264 core 155 r2901 7d0ff22
Настройки программы : cabac=1 / ref=4 / deblock=1:-3:-3 / analyse=0x3:0x113 / me=umh / subme=10 / psy=1 / psy_rd=1.00:0.15 / mixed_ref=1 / me_range=24 / chroma_me=1 / trellis=2 / 8x8dct=1 / cqm=0 / deadzone=21,11 / fast_pskip=1 / chroma_qp_offset=-3 / threads=9 / lookahead_threads=6 / sliced_threads=0 / nr=0 / decimate=0 / interlaced=0 / bluray_compat=0 / constrained_intra=0 / bframes=10 / b_pyramid=2 / b_adapt=2 / b_bias=0 / direct=3 / weightb=1 / open_gop=0 / weightp=2 / keyint=250 / keyint_min=23 / scenecut=40 / intra_refresh=0 / rc_lookahead=60 / rc=crf / mbtree=1 / crf=18.0 / qcomp=0.60 / qpmin=10 / qpmax=69 / qpstep=4 / vbv_maxrate=40000 / vbv_bufsize=40000 / crf_max=0.0 / nal_hrd=none / filler=0 / ip_ratio=1.40 / aq=1:1.00
Язык : English
Default : Нет
Forced : Нет
Аудио #1
Идентификатор : 2
Формат : AC-3
Формат/Информация : Audio Coding 3
Расширение режима : CM (complete main)
Параметр Endianness формата : Big
Идентификатор кодека : A_AC3
Продолжительность : 1 ч. 43 м.
Вид битрейта : Постоянный
Битрейт : 640 Кбит/сек
Каналы : 6 каналов
Расположение каналов : Front: L C R, Side: L R, LFE
Частота : 48,0 КГц
Битовая глубина : 16 бит
Метод сжатия : С потерями
Размер потока : 472 Мбайт (4%)
Язык : Russian
Default : Да
Forced : Нет
Аудио #2
Идентификатор : 3
Формат : AC-3
Формат/Информация : Audio Coding 3
Расширение режима : CM (complete main)
Параметр Endianness формата : Big
Идентификатор кодека : A_AC3
Продолжительность : 1 ч. 43 м.
Вид битрейта : Постоянный
Битрейт : 640 Кбит/сек
Каналы : 6 каналов
Расположение каналов : Front: L C R, Side: L R, LFE
Частота : 48,0 КГц
Битовая глубина : 16 бит
Метод сжатия : С потерями
Размер потока : 472 Мбайт (4%)
Язык : English
Default : Нет
Forced : Нет

Скриншоты










Display posts:    

Current time is: 29-Jan 08:24

All times are UTC ± 0


You cannot post new topics in this forum
You cannot reply to topics in this forum
You cannot edit your posts in this forum
You cannot delete your posts in this forum
You cannot vote in polls in this forum
You cannot attach files in this forum
You cannot download files in this forum

!ATTENTION!
The site does not give electronic versions of products, and is engaged only in a collecting and cataloguing of the references sent and published at a forum by our readers. If you are the legal owner of any submitted material and do not wish that the reference to it was in our catalogue, contact us and we shall immediately remove her. Files for an exchange on tracker are given by users of a site, and the administration does not bear the responsibility for their maintenance. The request to not fill in the files protected by copyrights, and also files of the illegal maintenance!