Наставник / Серии: 1-4 из 4 (Григорий Жихаревич) [2015, детектив, криминал, WEBRip 1080p] :: Российский Торрент трекер
Российский Торрент трекер
Яндекс.Погода
 

[Quote]
HUNTER

Наставник
Год выпуска: 2015
Страна: Россия
Жанр: детектив, криминал
Продолжительность: 4 x ~ 00:45:00
Субтитры: Нет
Режиссёр: Григорий Жихаревич
В ролях: Евгений Дятлов, Анатолий Друзенко, Михаил Трухин, Дмитрий Лысенков, Константин Шелестун, Сергей Уманов, Михаил Карпенко, Валентин Кузнецов, Алексей Федькин, Светлана Шаврова, Ирина Обрезкова, Александр Вонтов, Сергей Мурзин, Татьяна Ткач, Андрей Вергелис, Оксана Скакун, Любовь Мочалина, Евгений Ганелин, Александр Иванов (VII), Леонид Алимов, Владимир Маслаков
Описание: Майор полиции Кравцов участвует в различных коррупционных схемах, но остается одним из лучших оперов управления. Именно поэтому к нему прикрепляют стажера Сергея Горшенина, который сразу же проявляет себя как толковый и честный парень, готовый подставить плечо своему наставнику в трудный момент. Тем временем у Кравцова нарастают проблемы, связанные с его незаконной деятельностью. Младший брат Малинина, владельца подпольного казино, которое «крышует» полицейский, всё чаще впутывается в сомнительные авантюры. В результате тяжело ранен оперативник, но Кравцов вынужден скрывать информацию о преступниках. Однако стажер Горшенин сам выходит на их след, после чего становится свидетелем еще более тяжкого преступления.

Реклама: Нет
Сэмпл: http://multi-up.com/1288343
Качество: WEBRip 1080p
Формат: MKV
Видео кодек: H.264
Аудио кодек: AC3
Видео: MPEG-4 (AVC), 1920x1080, 25 fps, ~ 6000 kbps, ~ 0.12 bit/pixel
Аудио: AC3, 48.0 kHz, 2 ch, 192 Kbps

MI

General
Unique ID : 231791844296799458026753287048014437766 (0xAE617C41D64E970CB1CABC8A48359D86)
Complete name : Наставник (1 сер.) - web-dl1080p.mkv
Format : Matroska
Format version : Version 2
File size : 1.99 GiB
Duration : 46 min 9 s
Overall bit rate mode : Constant
Overall bit rate : 6 169 kb/s
Encoded date : UTC 2022-01-11 05:53:47
Writing application : mkvmerge v7.8.0 ('River Man') 32bit built on Apr 3 2015 12:11:22
Writing library : libebml v1.3.1 + libmatroska v1.4.2
Video
ID : 1
Format : AVC
Format/Info : Advanced Video Codec
Format profile : [email protected]
Format settings : 2 Ref Frames
Format settings, CABAC : No
Format settings, Reference : 2 frames
Codec ID : V_MPEG4/ISO/AVC
Duration : 46 min 9 s
Bit rate mode : Constant
Bit rate : 6 000 kb/s
Width : 1 920 pixels
Height : 1 080 pixels
Display aspect ratio : 16:9
Frame rate mode : Constant
Frame rate : 25.000 FPS
Standard : PAL
Color space : YUV
Chroma subsampling : 4:2:0
Bit depth : 8 bits
Scan type : Progressive
Bits/(Pixel*Frame) : 0.116
Stream size : 1.89 GiB (95%)
Default : Yes
Forced : No
Color range : Limited
Color primaries : BT.709
Transfer characteristics : BT.709
Matrix coefficients : BT.709
Audio
ID : 2
Format : AC-3
Format/Info : Audio Coding 3
Commercial name : Dolby Digital
Codec ID : A_AC3
Duration : 46 min 9 s
Bit rate mode : Constant
Bit rate : 192 kb/s
Channel(s) : 2 channels
Channel layout : L R
Sampling rate : 48.0 kHz
Frame rate : 31.250 FPS (1536 SPF)
Compression mode : Lossy
Stream size : 63.4 MiB (3%)
Service kind : Complete Main
Default : Yes
Forced : No

Скриншоты


Предыдущие и альтернативные раздачи


Display posts:    

Current time is: 29-Jan 06:35

All times are UTC ± 0


You cannot post new topics in this forum
You cannot reply to topics in this forum
You cannot edit your posts in this forum
You cannot delete your posts in this forum
You cannot vote in polls in this forum
You cannot attach files in this forum
You cannot download files in this forum

!ATTENTION!
The site does not give electronic versions of products, and is engaged only in a collecting and cataloguing of the references sent and published at a forum by our readers. If you are the legal owner of any submitted material and do not wish that the reference to it was in our catalogue, contact us and we shall immediately remove her. Files for an exchange on tracker are given by users of a site, and the administration does not bear the responsibility for their maintenance. The request to not fill in the files protected by copyrights, and also files of the illegal maintenance!