Ивановский Торрент трекер
Яндекс.Погода
 

[Quote]
HUNTER

Наша Маша и Волшебный орех
Страна: Россия
Жанр: мультфильм, фэнтези, приключения, семейный
Продолжительность: 01:16:28
Год выпуска: 2009
Русские субтитры: нет
Режиссёр: Егор Кончаловский
Роли озвучивали: Анна Снаткина
Всеволод Полищук
Тимур Родригез
Антон Пампушный
Владимир Зайцев
Оскар Кучера
Николай Кузнецов
Мария Аронова
Пётр Иващенко
Описание: Школьница Маша, как и многие из нас, считает, что настоящих друзей найти в нашем мире почти невозможно. Настоящая любовь — недостижимый идеал, и, вообще, чудес не бывает. Наверное, поэтому именно с ней под Новый год начинают происходить чудеса… Она находит волшебный орех Кракатук, который переносит девочку в невероятно красивую Сказочную страну. Там ее игрушки, Буратино и плюшевый медведь, становятся мальчишками Борькой и Михеем, а робот Гоша, подаренный родителями на Новый год, самым настоящим принцем.
Но власть в Сказочной стране захватили крысы, и правит ей коварный Император. Мало того, он со своими слугами, Ником и Диком, давно охотится за волшебным орехом. Ведь Кракатук способен выполнить любое желание, а крысиный повелитель мечтает управлять всей Вселенной. Он делает Маше предложение, от каких не отказываются… К чему приведут интриги Императора? Захочет ли Маша вернуться домой, ведь тогда принц в ее мире снова станет игрушкой? К кому попадет волшебный орех в новогоднюю полночь и получится ли загадать сокровенное желание?
Доп. информация: https://www.kinopoisk.ru/film/nasha-masha-i-volshebnyy-orekh-2009-259991/
Семпл: http://sendfile.su/1392823
Качество: HDRip найдено в сети
Формат: AVI
Видео: 720x400 (1.80:1), 23.976 fps, XviD build 64 ~2260 kbps avg, 0.33 bit/pixel
Аудио: 48 kHz, AC3 Dolby Digital, 3/2 (L,C,R,l,r) + LFE ch, ~448 kbps
Субтитры: отсутствуют

Подробные технические данные

General
Complete name : D:\Nasha_Masha_i_Volshebnij_Oreh_2009_HDRip_Original_Rus.avi
Format : AVI
Format/Info : Audio Video Interleave
File size : 1.45 GiB
Duration : 1h 16mn
Overall bit rate : 2 718 Kbps
Video
ID : 0
Format : MPEG-4 Visual
Format profile : Advanced [email protected]
Format settings, BVOP : 1
Format settings, QPel : No
Format settings, GMC : No warppoints
Format settings, Matrix : Custom
Codec ID : XVID
Codec ID/Hint : XviD
Duration : 1h 16mn
Bit rate : 2 261 Kbps
Width : 720 pixels
Height : 400 pixels
Display aspect ratio : 16:9
Frame rate : 23.976 fps
Color space : YUV
Chroma subsampling : 4:2:0
Bit depth : 8 bits
Scan type : Progressive
Compression mode : Lossy
Bits/(Pixel*Frame) : 0.327
Stream size : 1.21 GiB (83%)
Writing library : XviD 64
Audio
ID : 1
Format : AC-3
Format/Info : Audio Coding 3
Mode extension : CM (complete main)
Format settings, Endianness : Big
Codec ID : 2000
Duration : 1h 16mn
Bit rate mode : Constant
Bit rate : 448 Kbps
Channel count : 6 channels
Channel positions : Front: L C R, Side: L R, LFE
Sampling rate : 48.0 KHz
Bit depth : 16 bits
Compression mode : Lossy
Stream size : 245 MiB (16%)
Alignment : Split accross interleaves
Interleave, duration : 42 ms (1.00 video frame)
Interleave, preload duration : 500 ms


Display posts:    

Current time is: 23-Oct 01:20

All times are UTC ± 0


You cannot post new topics in this forum
You cannot reply to topics in this forum
You cannot edit your posts in this forum
You cannot delete your posts in this forum
You cannot vote in polls in this forum
You cannot attach files in this forum
You cannot download files in this forum

!ATTENTION!
The site does not give electronic versions of products, and is engaged only in a collecting and cataloguing of the references sent and published at a forum by our readers. If you are the legal owner of any submitted material and do not wish that the reference to it was in our catalogue, contact us and we shall immediately remove her. Files for an exchange on tracker are given by users of a site, and the administration does not bear the responsibility for their maintenance. The request to not fill in the files protected by copyrights, and also files of the illegal maintenance!