Ивановский Торрент трекер
Яндекс.Погода
 

[Quote]
HUNTER

Мы - монстры / Happy Family
Страна: Великобритания, Германия
Жанр: мультфильм, ужасы, комедия, семейный
Продолжительность: 1:33:14
Год выпуска: 2017
Перевод: Профессиональный (дублированный) iTunes
Оригинальная аудиодорожка: Английский + Украинский Дубляж (iTunes)
Русские субтитры: нет--Режиссёр: Хольгер Таппе / Holger Tappe--Роли озвучивали: Эмили Уотсон, Джейсон Айзекс, Ник Фрост, Джессика Браун-Финдли, Селия Имри, Кэтрин Тейт, Итан Раус, Ивэн Бэйли, Эмма Тейт, Джессика МакДональд...--Описание: По воле могущественного Дракулы вся семейка Уишбоун сталкивается с «монстрическими» проблемами: мама превращается в вампира, папа — в Франкенштейна, а их дети — в мумию и оборотня. Теперь они должны сплотиться, чтобы победить повелителя тьмы и снова стать не только людьми, но и дружной семьей.--Доп. информация: | IMDB | КиноПоиск | Сэмпл | --Качество: BDRip-AVC MONSTER.FAMILY.2017 Blu-ray Disc - BLUEBIRD
Формат: MKV
Видео: AVC, 1120x468 (2.40:1), 3123 kbps, 24.000 fps, 0.248 bit/pixel
Аудио 1: AC3 Dolby Digital, 3/2 (L,C,R,l,r) + LFE ch, 48.0 KHz, 384 Kbps
Аудио 2: AC3 Dolby Digital, 3/2 (L,C,R,l,r) + LFE ch, 48.0 KHz, 384 Kbps
Аудио 3: AC3 Dolby Digital, 3/2 (L,C,R,l,r) + LFE ch, 48.0 KHz, 448 Kbps
Субтитры: Итальянские

Скриншоты

Подробные технические данные

x264

raw [info]: 1120x468p 1:1 @ 10000000/416667 fps (cfr)
x264 [info]: using SAR=1/1
x264 [info]: using cpu capabilities: MMX2 SSE2Fast SSSE3 SSE4.2 AVX
x264 [info]: profile High, level 4.1
x264 [info]: frame I:1188 Avg QP:15.98 size: 96381
x264 [info]: frame P:32744 Avg QP:18.03 size: 31296
x264 [info]: frame B:100331 Avg QP:21.51 size: 10413
x264 [info]: consecutive B-frames: 2.2% 2.8% 11.6% 43.8% 15.8% 18.7% 1.7% 0.9% 0.5% 0.2% 0.2% 1.1% 0.1% 0.1% 0.2%
x264 [info]: mb I I16..4: 7.1% 60.4% 32.5%
x264 [info]: mb P I16..4: 1.3% 9.0% 3.4% P16..4: 31.7% 23.7% 16.2% 0.0% 0.0% skip:14.7%
x264 [info]: mb B I16..4: 0.2% 1.1% 0.5% B16..8: 30.4% 10.7% 4.3% direct: 6.1% skip:46.8% L0:37.7% L1:39.6% BI:22.8%
x264 [info]: 8x8 transform intra:63.9% inter:54.0%
x264 [info]: coded y,uvDC,uvAC intra: 79.8% 90.3% 80.4% inter: 19.4% 22.9% 12.6%
x264 [info]: i16 v,h,dc,p: 35% 31% 3% 31%
x264 [info]: i8 v,h,dc,ddl,ddr,vr,hd,vl,hu: 16% 14% 10% 7% 10% 10% 11% 10% 12%
x264 [info]: i4 v,h,dc,ddl,ddr,vr,hd,vl,hu: 27% 11% 5% 7% 11% 10% 10% 9% 10%
x264 [info]: i8c dc,h,v,p: 36% 26% 21% 18%
x264 [info]: Weighted P-Frames: Y:2.1% UV:1.3%
x264 [info]: ref P L0: 52.6% 11.7% 13.6% 6.1% 4.0% 3.3% 2.5% 1.6% 1.3% 1.2% 1.0% 1.1% 0.0% 0.0%
x264 [info]: ref B L0: 77.9% 9.8% 4.9% 2.3% 1.7% 1.1% 0.9% 0.6% 0.5% 0.3% 0.2%
x264 [info]: ref B L1: 94.5% 5.5%
x264 [info]: kb/s:3123.17
General
Unique ID : 243029529909892902505897159982796629780 (0xB6D5C8EF5CCB9261838E5B74E14DE714)
Complete name : Happy Family (2017).mkv
Format : Matroska
Format version : Version 4 / Version 2
File size : 2.83 GiB
Duration : 1 h 33 min
Overall bit rate : 4 340 kb/s
Movie name : Мы - монстры / Happy Family (2017)
Encoded date : UTC 2018-02-24 21:48:06
Writing application : mkvmerge v8.1.0 ('Psychedelic Postcard') 64bit
Writing library : libebml v1.3.1 + libmatroska v1.4.2
Cover : Yes
Attachments : cover.jpg
Video
ID : 1
Format : AVC
Format/Info : Advanced Video Codec
Format profile : [email protected]
Format settings : CABAC / 12 Ref Frames
Format settings, CABAC : Yes
Format settings, ReFrames : 12 frames
Codec ID : V_MPEG4/ISO/AVC
Duration : 1 h 33 min
Bit rate : 3 123 kb/s
Width : 1 120 pixels
Height : 468 pixels
Display aspect ratio : 2.40:1
Frame rate mode : Constant
Frame rate : 24.000 FPS
Color space : YUV
Chroma subsampling : 4:2:0
Bit depth : 8 bits
Scan type : Progressive
Bits/(Pixel*Frame) : 0.248
Stream size : 2.03 GiB (72%)
Title : Happy Family (2017) By optik.1557
Writing library : x264 core 152 r2851kMod ba24899
Encoding settings : cabac=1 / ref=12 / deblock=1:-2:-1 / analyse=0x3:0x113 / me=umh / subme=10 / psy=1 / fade_compensate=0.00 / psy_rd=1.05:0.01 / mixed_ref=1 / me_range=32 / chroma_me=1 / trellis=2 / 8x8dct=1 / cqm=0 / deadzone=21,11 / fast_pskip=0 / chroma_qp_offset=-3 / threads=6 / lookahead_threads=1 / sliced_threads=0 / nr=0 / decimate=1 / interlaced=0 / bluray_compat=0 / constrained_intra=0 / bframes=14 / b_pyramid=2 / b_adapt=2 / b_bias=0 / direct=1 / weightb=1 / open_gop=0 / weightp=2 / keyint=250 / keyint_min=23 / scenecut=40 / intra_refresh=0 / rc_lookahead=60 / rc=crf / mbtree=0 / crf=17.3000 / qcomp=0.70 / qpmin=0 / qpmax=69 / qpstep=4 / vbv_maxrate=50000 / vbv_bufsize=62500 / crf_max=0.0 / nal_hrd=none / filler=0 / ip_ratio=1.40 / pb_ratio=1.30 / aq=3:0.80
Language : English
Default : Yes
Forced : No
Audio #1
ID : 2
Format : AC-3
Format/Info : Audio Coding 3
Codec ID : A_AC3
Duration : 1 h 33 min
Bit rate mode : Constant
Bit rate : 384 kb/s
Channel(s) : 6 channels
Channel positions : Front: L C R, Side: L R, LFE
Sampling rate : 48.0 kHz
Frame rate : 31.250 FPS (1536 SPF)
Bit depth : 16 bits
Compression mode : Lossy
Stream size : 256 MiB (9%)
Title : Дубляж (iTunes)
Language : Russian
Service kind : Complete Main
Default : Yes
Forced : No
Audio #2
ID : 3
Format : AC-3
Format/Info : Audio Coding 3
Codec ID : A_AC3
Duration : 1 h 33 min
Bit rate mode : Constant
Bit rate : 384 kb/s
Channel(s) : 6 channels
Channel positions : Front: L C R, Side: L R, LFE
Sampling rate : 48.0 kHz
Frame rate : 31.250 FPS (1536 SPF)
Bit depth : 16 bits
Compression mode : Lossy
Stream size : 256 MiB (9%)
Title : Дубляж (iTunes)
Language : Ukrainian
Service kind : Complete Main
Default : No
Forced : No
Audio #3
ID : 4
Format : AC-3
Format/Info : Audio Coding 3
Codec ID : A_AC3
Duration : 1 h 33 min
Bit rate mode : Constant
Bit rate : 448 kb/s
Channel(s) : 6 channels
Channel positions : Front: L C R, Side: L R, LFE
Sampling rate : 48.0 kHz
Frame rate : 31.250 FPS (1536 SPF)
Bit depth : 16 bits
Compression mode : Lossy
Stream size : 299 MiB (10%)
Title : Original
Language : English
Service kind : Complete Main
Default : No
Forced : No
Text
ID : 5
Format : UTF-8
Codec ID : S_TEXT/UTF8
Codec ID/Info : UTF-8 Plain Text
Duration : 1 h 28 min
Bit rate : 50 b/s
Count of elements : 1138
Stream size : 32.4 KiB (0%)
Title : SDH
Language : Italian
Default : No
Forced : No
Menu
00:00:00.000 : en:(01)00:00:00:000
00:07:33.166 : en:(02)00:07:33:166
00:15:33.041 : en:(03)00:15:33:041
00:23:42.875 : en:(04)00:23:42:875
00:30:54.125 : en:(05)00:30:54:125
00:39:01.583 : en:(06)00:39:01:583
00:46:31.208 : en:(07)00:46:31:208
00:53:50.750 : en:(08)00:53:50:750
01:01:49.875 : en:(09)01:01:49:875
01:09:33.000 : en:(10)01:09:33:000
01:16:31.332 : en:(11)01:16:31:332
01:27:30.625 : en:(12)01:27:30:625
01:33:13.000 : en:(13)01:33:13:000


Display posts:    

Current time is: 16-Oct 12:29

All times are UTC ± 0


You cannot post new topics in this forum
You cannot reply to topics in this forum
You cannot edit your posts in this forum
You cannot delete your posts in this forum
You cannot vote in polls in this forum
You cannot attach files in this forum
You cannot download files in this forum

!ATTENTION!
The site does not give electronic versions of products, and is engaged only in a collecting and cataloguing of the references sent and published at a forum by our readers. If you are the legal owner of any submitted material and do not wish that the reference to it was in our catalogue, contact us and we shall immediately remove her. Files for an exchange on tracker are given by users of a site, and the administration does not bear the responsibility for their maintenance. The request to not fill in the files protected by copyrights, and also files of the illegal maintenance!