Ивановский Торрент трекер
Яндекс.Погода
 

[Quote]
HUNTER

Милый Ханс, дорогой Петр
Страна: Россия, Великобритания, Германия
Студия: AI Film, Cine Plus, Ma.Ja.De. и др.
Жанр: драма
Год выпуска: 2015
Продолжительность: 01:59:12
Перевод: Русский оригинал+одноголосый закадровый на немецкие диалоги - iTunes
Субтитры: нет
Оригинальная аудиодорожка: русский+немецкий
Режиссер: Александр Миндадзе
В ролях: Якоб Диль, Биргит Минихмайр, Марк Вашке, Марк Хоземанн, Роза Хаируллина, Андрюс Даряла, Евгений Сармонт, Ангелина Римашевская, Анна Скиданова, Светлана Косолапова

Описание: Накануне войны немецкие инженеры работают на советском заводе над производством высокоточной оптики. Судьба и благополучие каждого из них зависит от успеха дела, но пока результата нет — ошибки следуют одна за другой. На фоне производственных неудач и приближения трагической эпохи раскрываются личные проблемы героев и их непростые взаимоотношения. Во время ответственной варки у инженера Ханса случается нервный срыв, приведший к тяжелым последствиям: взрыву, смертям и расследованию советских спецслужб. Свидетелем его проступка становится русский рабочий Пётр. Ханс и Пётр, случайно ставший причастным к преступлению, оказываются в зависимости друг от друга, повязанные страхом разоблачения. Однако взаимное недоверие парадоксальным образом оборачивается духовной близостью. Когда Петр с женой и детьми тайно бежит из города, гонимый страхом расстрела, немецкий инженер вместо облегчения испытывает чувство утраты. Вскоре Ханс возвращается в те же места, но уже в офицерской форме, смотрит в бинокль сквозь созданные им же линзы, обозревая окрестности: а была ли недавняя мирная жизнь?

Sample
Тип релиза: WEB-DL 1080p - HDClub
Контейнер: MKV
Видео: MPEG4 AVC Video, H264, 1920x802, 25 fps, 4463 kbps
Аудио: Russian (AC3, 6 ch, 384 kbps, 16 bits, 48.0 KHz) - оригинал

MediaInfo

General
Unique ID : 237703819120364462845150691542472730017 (0xB2D4171ED0012B1E96A1EC5E899225A1)
Complete name : D:\Милый Ханс, дорогой Петр.mkv
Format : Matroska
Format version : Version 2
File size : 4.12 GiB
Duration : 1h 59mn
Overall bit rate : 4 945 Kbps
Movie name : My Good Hans (2015) - Release for HDCLUB
Encoded date : UTC 2016-08-31 16:08:28
Writing application : mkvmerge v3.4.0 ('Rapunzel') built on May 15 2010 09:38:20
Writing library : libebml v0.8.0 + libmatroska v0.9.0
Video
ID : 1
Format : AVC
Format/Info : Advanced Video Codec
Format profile : [email protected]
Format settings, CABAC : Yes
Format settings, ReFrames : 5 frames
Codec ID : V_MPEG4/ISO/AVC
Duration : 1h 59mn
Bit rate : 4 463 Kbps
Width : 1 920 pixels
Height : 802 pixels
Display aspect ratio : 2.40:1
Frame rate mode : Constant
Frame rate : 25.000 fps
Color space : YUV
Chroma subsampling : 4:2:0
Bit depth : 8 bits
Scan type : Progressive
Bits/(Pixel*Frame) : 0.116
Stream size : 3.72 GiB (90%)
Title : My Good Hans (2015) - Release for HDCLUB
Language : English
Default : Yes
Forced : No
Color primaries : BT.709
Transfer characteristics : BT.709
Matrix coefficients : BT.709
Audio
ID : 2
Format : AC-3
Format/Info : Audio Coding 3
Mode extension : CM (complete main)
Format settings, Endianness : Big
Codec ID : A_AC3
Duration : 1h 59mn
Bit rate mode : Constant
Bit rate : 384 Kbps
Channel count : 6 channels
Channel positions : Front: L C R, Side: L R, LFE
Sampling rate : 48.0 KHz
Bit depth : 16 bits
Compression mode : Lossy
Stream size : 327 MiB (8%)
Title : AC3 5.1 @ 384 kbps - VO, iTunes
Language : Russian
Default : Yes
Forced : No
Menu
00:00:00.000 : en:1
00:05:10.240 : en:2
00:10:26.080 : en:3
00:15:14.200 : en:4
00:21:21.200 : en:5
00:26:23.120 : en:6
00:33:06.280 : en:7
00:38:50.960 : en:8
00:45:15.720 : en:9
00:53:07.200 : en:10
01:00:35.520 : en:11
01:06:57.400 : en:12
01:12:39.760 : en:13
01:20:36.840 : en:14
01:30:25.600 : en:15
01:38:49.000 : en:16
01:48:03.240 : en:17

Скриншоты




Display posts:    

Current time is: 21-Oct 18:21

All times are UTC ± 0


You cannot post new topics in this forum
You cannot reply to topics in this forum
You cannot edit your posts in this forum
You cannot delete your posts in this forum
You cannot vote in polls in this forum
You cannot attach files in this forum
You cannot download files in this forum

!ATTENTION!
The site does not give electronic versions of products, and is engaged only in a collecting and cataloguing of the references sent and published at a forum by our readers. If you are the legal owner of any submitted material and do not wish that the reference to it was in our catalogue, contact us and we shall immediately remove her. Files for an exchange on tracker are given by users of a site, and the administration does not bear the responsibility for their maintenance. The request to not fill in the files protected by copyrights, and also files of the illegal maintenance!