Ивановский Торрент трекер
Яндекс.Погода
 

[Quote]
HUNTER

Милая одинокая девушка / Sweet, Sweet Lonely Girl
Страна: США
Жанр: Ужасы, Триллер, Драма
Год выпуска: 2016
Продолжительность: 01:16:00
Перевод: Субтитры
Субтитры: русские (Chillerama)
Оригинальная аудиодорожка: английский
Режиссер: А.Д. Кальво / A.D. Calvo
В ролях: Куинн Шепард, Эрин Вильхельми, Сьюзэн Келлерман, Хада Ванесса, Фрэнсис Ив
Описание: Адель молода и прекрасна. Дорогу домой она предпочитает разбавлять посиделками на качелях с видом на стойла коров, пока добродушный софисти-поп 70-х из наушников распевается про солнце, улыбку и, конечно, любовь. В семье не без урода: и Адель у родни — убедительный шанс на безбедное будущее сварливой матери, которую ожидает пополнение. Тетя Дора живет в устрашающее-готическом почти что замке: та, запертая в своей комнате на верхнем этаже, не против фамильной сиделки; специальные сардины, яйца, картофельный суп, крекеры и чай — вот и весь ее ежедневный рацион; никаких посторонних, шума и всегда проверять дверь — такие ее условия. Поговаривают, что у нее в лучшем случае агорафобия, так эвфемизируя безумие, но матери Адель до этого нет дела, потому что завещание и дом, который должен перепасть во владение младшей сестры, — аргумент, безусловно, стопудовый. Адель же хочет маломальского внимания, но на свою беду встречает напористую и абразивную брюнетку Бет, от которой ни робкого взгляда не оторвать, ни влюбиться без последствий.

Сэмпл: http://sendfile.su/1400479
Тип релиза: WEB-DL 1080p
Контейнер: MKV
Видео: AVC, 1920x1036 (1,85:1), 23,976 fps, 5205 kbps
Аудио: AC-3, 48.0 KHz, 384 kbps, 16 bits, 6 ch
Формат субтитров: softsub (SRT)

MediaInfo

General
Unique ID : 249890897285262507204454458482391545321 (0xBBFF3C7705E929439109A5BD90AC75E9)
Complete name : R:\Distribution\Sweet Sweet Lonely Girl (2016)\Sweet, Sweet Lonely Girl (2016) (1).mkv
Format : Matroska
Format version : Version 4 / Version 2
File size : 2,98 Гбайт
Duration : 1 ч. 16 м.
Overall bit rate : 5591 Кбит/сек
Movie name : Sweet.Sweet.Lonely.Girl.2016.1080p.WEB-DL.DD5.1.H264-FGT
Encoded date : UTC 2018-02-20 18:03:56
Writing application : mkvmerge v7.7.0 ('Six Voices') 32bit built on Feb 28 2015 23:23:00
Writing library : libebml v1.3.1 + libmatroska v1.4.2
Cover : Yes
Attachments : cover.jpg / cover_land.jpg / small_cover.jpg / small_cover_land.jpg
Video
ID : 1
Format : AVC
Format/Info : Advanced Video Codec
Format profile : [email protected]
Format settings : CABAC / 4 Ref Frames
Format settings, CABAC : Да
Format settings, RefFrames : 4 кадра
Codec ID : V_MPEG4/ISO/AVC
Duration : 1 ч. 16 м.
Bit rate : 5205 Кбит/сек
Width : 1920 пикселей
Height : 1036 пикселей
Display aspect ratio : 1,85:1
Frame rate mode : Постоянный
Frame rate : 23,976 (23976/1000) кадра/сек
Color space : YUV
Chroma subsampling : 4:2:0
Bit depth : 8 бит
Scan type : Прогрессивная
Bits/(Pixel*Frame) : 0.109
Stream size : 2,78 Гбайт (93%)
Title : Sweet.Sweet.Lonely.Girl.2016.1080p.WEB-DL.DD5.1.H264-FGT
Language : English
Default : Да
Forced : Нет
Color range : Limited
Color primaries : BT.709
Transfer characteristics : BT.709
Matrix coefficients : BT.709
Audio
ID : 2
Format : AC-3
Format/Info : Audio Coding 3
Codec ID : A_AC3
Duration : 1 ч. 16 м.
Bit rate mode : Постоянный
Bit rate : 384 Кбит/сек
Channel(s) : 6 каналов
Channel positions : Front: L C R, Side: L R, LFE
Sampling rate : 48,0 КГц
Frame rate : 31,250 кадров/сек (1536 SPF)
Bit depth : 16 бит
Compression mode : С потерями
Delay relative to video : -42 мс.
Stream size : 210 Мбайт (7%)
Title : Sweet.Sweet.Lonely.Girl.2016.1080p.WEB-DL.DD5.1.H264-FGT
Language : English
Service kind : Complete Main
Default : Да
Forced : Нет
Text
ID : 3
Format : UTF-8
Codec ID : S_TEXT/UTF8
Codec ID/Info : UTF-8 Plain Text
Duration : 1 ч. 8 м.
Bit rate : 28 бит/сек
Count of elements : 319
Stream size : 14,3 Кбайт (0%)
Title : russian
Language : Russian
Default : Да
Forced : Нет

Фрагмент субтитров

203
00:41:05,312 --> 00:41:07,177
Там был этот парень.
204
00:41:09,549 --> 00:41:11,632
Просто лежал на берегу.
205
00:41:14,554 --> 00:41:16,163
И пялился.
206
00:41:19,026 --> 00:41:21,123
Я сняла рубашку.
207
00:41:25,565 --> 00:41:29,183
А он просто лежал там.
208
00:41:30,937 --> 00:41:33,584
Я пробежала около него...
209
00:41:35,675 --> 00:41:38,147
И дала ему песком в лицо.
210
00:41:38,647 --> 00:41:40,682
Когда он перевернулся...
211
00:41:41,512 --> 00:41:43,364
У него был стояк.
212
00:41:45,685 --> 00:41:47,901
Я прошептала подруге, мол,
213
00:41:48,722 --> 00:41:50,638
ты первая.
214
00:41:56,630 --> 00:41:58,712
Я просто стояла там.
215
00:41:59,833 --> 00:42:01,849
И слушала, как она стонет.
216
00:42:03,003 --> 00:42:04,818
Затем настала моя очередь.
217
00:42:08,976 --> 00:42:10,833
А он просто...
218
00:42:11,818 --> 00:42:13,677
Лежал там.
219
00:42:16,383 --> 00:42:18,299
Его лицо побагровело.
220
00:42:19,553 --> 00:42:21,668
И все еще было в песке.
221
00:42:26,994 --> 00:42:29,209
Пока он не кончил в меня.
222
00:42:34,217 --> 00:42:36,103
Мужики — свиньи.
223
00:42:37,270 --> 00:42:40,121
Да. Так и есть.
224
00:42:42,409 --> 00:42:45,859
Свинью довольно просто охомутать.

Скриншот c названием фильма

Скриншоты



Display posts:    

Current time is: 16-Oct 12:14

All times are UTC ± 0


You cannot post new topics in this forum
You cannot reply to topics in this forum
You cannot edit your posts in this forum
You cannot delete your posts in this forum
You cannot vote in polls in this forum
You cannot attach files in this forum
You cannot download files in this forum

!ATTENTION!
The site does not give electronic versions of products, and is engaged only in a collecting and cataloguing of the references sent and published at a forum by our readers. If you are the legal owner of any submitted material and do not wish that the reference to it was in our catalogue, contact us and we shall immediately remove her. Files for an exchange on tracker are given by users of a site, and the administration does not bear the responsibility for their maintenance. The request to not fill in the files protected by copyrights, and also files of the illegal maintenance!