Ивановский Торрент трекер
Яндекс.Погода
 

[Quote]
HUNTER

Мифы
Страна: Россия
Студия: Hype Film, Art Pictures Studio
Жанр: комедия
Год выпуска: 2017
Продолжительность: 01:33:19
Перевод: Не требуется
Субтитры: нет
Оригинальная аудиодорожка: русский
Режиссёр: Александр Молочников
В ролях: Яннис Пападопулос, Паулина Андреева, Сергей Безруков, Виктория Исакова, Ирина Розанова, Павел Ворожцов, Фёдор Бондарчук, Максим Суханов, Милош Бикович, Ксения Раппопорт, Игорь Верник, Вадим Верник, Андрей Смоляков, Надежда Маркина, Иван Ургант, Светлана Устинова, Алексей Агранович, Рената Пиотровски, Михаил Рахлин, Ирина Пегова

Описание: Последняя надежда русского кино, продюсер и режиссер Федор, торчит денег за музыкальный клип браткам из 90-х. Артист Сергей сыграл всех от Иисуса Христа до белочки. У Сергея кончились роли, он в депрессии, и не знает, как жить дальше. Телеведущий страны номер один, Иван, не может перестать шутить в обычной жизни. Девушка Ивана не понимает, почему он смешит ее за завтраком, в постели и даже на похоронах. Ничего не напоминает?
Нищий иностранец по чистой случайности попадает в самую гущу жизни богатых и знаменитых. Выясняется, что все наши представления о жизни звезд — мифы. На самом деле все гораздо хуже. Пытаясь помочь звездам решить их проблемы, наш герой влюбляется в жену Большого градоначальника и решает сделать все, чтобы похитить ее с Московского Олимпа.


Sample
Тип релиза: WEB-DL 1080p
Контейнер: MKV
Видео: MPEG4 AVC Video, H264, 1920x796, 23.976 fps, 4468 kbps
Аудио: Russian (AC3, 6 ch, 384 kbps, 16 bits, 48.0 KHz) - оригинал

MediaInfo

General
Unique ID : 221797132637467763868277273555856680007 (0xA6DC92ED3EBDB62B9477D17B8B626447)
Complete name : D:\Мифы 2017 WEB-DL 1080p.mkv
Format : Matroska
Format version : Version 2
File size : 3.23 GiB
Duration : 1h 33mn
Overall bit rate : 4 950 Kbps
Encoded date : UTC 2018-02-14 00:06:18
Writing application : mkvmerge v8.3.0 ('Over the Horizon') 64bit
Writing library : libebml v1.3.1 + libmatroska v1.4.2
DURATION : 01:33:19.264000000
NUMBER_OF_FRAMES : 174977
NUMBER_OF_BYTES : 268764672
_STATISTICS_WRITING_APP : mkvmerge v8.3.0 ('Over the Horizon') 64bit
_STATISTICS_WRITING_DATE_UTC : 2018-02-14 00:06:18
_STATISTICS_TAGS : BPS DURATION NUMBER_OF_FRAMES NUMBER_OF_BYTES
Video
ID : 1
Format : AVC
Format/Info : Advanced Video Codec
Format profile : [email protected]
Format settings, CABAC : Yes
Format settings, ReFrames : 5 frames
Codec ID : V_MPEG4/ISO/AVC
Duration : 1h 33mn
Bit rate : 4 468 Kbps
Width : 1 920 pixels
Height : 796 pixels
Display aspect ratio : 2.40:1
Frame rate mode : Constant
Frame rate : 23.976 fps
Color space : YUV
Chroma subsampling : 4:2:0
Bit depth : 8 bits
Scan type : Progressive
Bits/(Pixel*Frame) : 0.122
Stream size : 2.91 GiB (90%)
Language : English
Default : Yes
Forced : No
Color primaries : BT.709
Transfer characteristics : BT.709
Matrix coefficients : BT.709
Audio
ID : 2
Format : AC-3
Format/Info : Audio Coding 3
Mode extension : CM (complete main)
Format settings, Endianness : Big
Codec ID : A_AC3
Duration : 1h 33mn
Bit rate mode : Constant
Bit rate : 384 Kbps
Channel count : 6 channels
Channel positions : Front: L C R, Side: L R, LFE
Sampling rate : 48.0 KHz
Bit depth : 16 bits
Compression mode : Lossy
Stream size : 256 MiB (8%)
Language : Russian
Default : Yes
Forced : No
Menu
00:00:00.000 : en:1
00:09:22.562 : en:2
00:14:38.336 : en:3
00:20:17.967 : en:4
00:26:52.152 : en:5
00:32:09.886 : en:6
00:35:22.536 : en:7
00:40:54.159 : en:8
00:44:06.434 : en:9
00:47:38.771 : en:10
00:52:49.665 : en:11
00:56:38.810 : en:12
01:04:59.894 : en:13
01:11:10.014 : en:14
01:17:47.911 : en:15
01:25:58.234 : en:16

Скриншоты




Display posts:    

Current time is: 23-Oct 02:39

All times are UTC ± 0


You cannot post new topics in this forum
You cannot reply to topics in this forum
You cannot edit your posts in this forum
You cannot delete your posts in this forum
You cannot vote in polls in this forum
You cannot attach files in this forum
You cannot download files in this forum

!ATTENTION!
The site does not give electronic versions of products, and is engaged only in a collecting and cataloguing of the references sent and published at a forum by our readers. If you are the legal owner of any submitted material and do not wish that the reference to it was in our catalogue, contact us and we shall immediately remove her. Files for an exchange on tracker are given by users of a site, and the administration does not bear the responsibility for their maintenance. The request to not fill in the files protected by copyrights, and also files of the illegal maintenance!