Ивановский Торрент трекер
Яндекс.Погода
 

[Quote]
HUNTER

Матрица времени / Before I Fall
Страна: США
Студия: Awesomeness Films, Jon Shestack Productions
Жанр: триллер, драма, детектив
Год выпуска: 2017
Продолжительность: 01:38:48
Перевод: Профессиональный (дублированный) Blu-ray RUS
Субтитры: русские, английские, английские (SDH), английские (SDH-Colored)
Оригинальная аудиодорожка: английский
Режиссер: Ри Руссо-Янг / Ry Russo-Young
В ролях: Зои Дойч, Холстон Сейдж, Логан Миллер, Киан Лоули, Елена Кампурис, Синти У, Медальон Рахими, Эрика Тремблэй, Лив Хьюсон, Николас Ли
Описание: Саманта — крутая девчонка, которой всегда и во всем везло. Но в тот день, в пятницу, 12 февраля, что-то пошло не так, а потом та авария на трассе... Саманта оказалась в заколдованном круге проклятого дня, и теперь она вынуждена проживать ужас той пятницы снова и снова. Чтобы распутать петлю времени, она должна вычислить ошибку и исправить неверный шаг. Но каждый раз что-то не срабатывает...- -Сэмпл: https://yadi.sk/i/DgJNVTLa3SXxpe
Тип релиза: BDRip 1080p [hungdaita @ DON]
Контейнер: MKV
Видео: h.264, 1920x802, 23.976 fps, 18570 kbps
Аудио #1: Russian: DTS 5.1, 48 kHz/24-bit, 1536 kbps avg |Дубляж, Blu-ray RUS|
Аудио #2: Ukrainian: AC3 2.0, 48 kHz, 192 kbps avg |Многоголосый закадровый, MEGOGO|
Аудио #3: English: DTS 5.1, 48 kHz/24-bit, 1536 kbps avg |Оригинал|
Формат субтитров: softsub (SRT)

Дополнительно

  • Русские субтитры и украинская дорожка были взяты из этой раздачи
    Цитата:Before I Fall 2017 1080p BluRay DTS x264-DON
    Technical Information:
    RELEASE SiZE...: 13.85 GiB
    RUNTiME........: 1h 38mn
    ViDEO CODEC....: x264 [email protected]
    FRAMERATE......: 23.976 fps
    BiTRATE........: Variable ~ 18.2 Mbps
    ASPECT RATiO...: 2.40:1
    RESOLUTiON.....: 1920x802 (OAR)
    AUDiO..........: English DTS 6ch @ 1509 Kbps
    CHAPTERS.......: Yes
    SOURCE.........: 1080p Blu-ray AVC DTS-HD MA 5.1-CBGB ~ Thanks dancingdemon !
    SUBTiTLES......: English,English-SDH,English-SDH-Colored,Romanian,Spanish. (srt)
    ENCODER........: hungdaita @ DON
    RELEASE.DATE...: 19/05/2017
    .x264 iNFO:
    --crf 15.3 --preset placebo --me umh --subme 11 --bframes 9 --deblock -3:-3 --ipratio 1.30 --pbratio 1.20
    --psy-rd 1.05 --qcomp 0.65 --aq-strength 0.80 --merange 32 --no-fast-pskip --no-mbtree --no-dct-decimate
    .x264 LOG:
    x264 [info]: frame I:879 Avg QP:10.09 size:256042
    x264 [info]: frame P:27183 Avg QP:11.11 size:141942
    x264 [info]: frame B:114067 Avg QP:12.45 size: 84834
    x264 [info]: consecutive B-frames: 1.9% 1.5% 4.9% 4.5% 9.3% 65.3% 6.3% 1.6% 2.4% 2.3%
    encoded 142129 frames, 4.573 fps, 18569.86 kb/s, 13123 MB ~ encoding duration 8:38:03
    .NOTES:
    * Special thanks to Elheym and rose who helped me with the subtitles.
    * Dirty lines were fixed. Added border. Debanding filter was applied.
    * There are some intentional "bad looking" scenes which won't be filtered.
    * Used zones for some dark scenes, while i zoned for a lot scenes when the room completed red.
    * Greetings: Nick007, v0danh, BodoiCuHo, riverstore, rose, wolgone, superstar, AraGorN, NOiZE and my friends !

MediaInfo

Общее
Уникальный идентификатор : 310481577775607152152570705635837623417 (0xE99493A7F9E93A53830E3DDF70CA3C79)
Полное имя : D:\Принятые\Before.I.Fall.2017.1080p.BluRay.Rus.Ukr.Eng.x264-DON.mkv
Формат : Matroska
Версия формата : Version 4 / Version 2
Размер файла : 15,0 Гбайт
Продолжительность : 1 ч. 38 м.
Общий поток : 21,8 Мбит/сек
Название фильма : Before I Fall 2017 1080p BluRay DTS x264-DON
Дата кодирования : UTC 2018-02-18 21:47:05
Программа кодирования : mkvmerge v20.0.0 ('I Am The Sun') 64-bit
Библиотека кодирования : libebml v1.3.5 + libmatroska v1.4.8
Обложка : Yes
Attachments : Cover.png
Видео
Идентификатор : 1
Формат : AVC
Формат/Информация : Advanced Video Codec
Профиль формата : [email protected]
Настройки формата : CABAC / 5 Ref Frames
Параметр CABAC формата : Да
Параметр RefFrames формата : 5 кадров
Идентификатор кодека : V_MPEG4/ISO/AVC
Продолжительность : 1 ч. 38 м.
Битрейт : 18,6 Мбит/сек
Ширина : 1920 пикселей
Высота : 802 пикселя
Соотношение сторон : 2,40:1
Режим частоты кадров : Постоянный
Частота кадров : 23,976 (24000/1001) кадра/сек
Цветовое пространство : YUV
Субдискретизация насыщенности : 4:2:0
Битовая глубина : 8 бит
Тип развёртки : Прогрессивная
Бит/(Пиксели*Кадры) : 0.503
Размер потока : 12,8 Гбайт (85%)
Заголовок : Before I Fall 2017 1080p BluRay DTS x264-DON
Библиотека кодирования : x264 core 148 r2762+56 6284cf3 t_mod_Custom [[email protected] X86_64]
Настройки программы : cabac=1 / ref=5 / deblock=1:-3:-3 / analyse=0x3:0x133 / me=umh / subme=11 / psy=1 / fade_compensate=0.00 / psy_rd=1.05:0.00 / mixed_ref=1 / me_range=32 / chroma_me=1 / trellis=2 / 8x8dct=1 / cqm=0 / deadzone=21,11 / fast_pskip=0 / chroma_qp_offset=-2 / threads=12 / lookahead_threads=2 / sliced_threads=0 / nr=0 / decimate=0 / interlaced=0 / bluray_compat=0 / constrained_intra=0 / fgo=0 / bframes=9 / b_pyramid=2 / b_adapt=2 / b_bias=0 / direct=3 / weightb=1 / open_gop=0 / weightp=2 / keyint=250 / keyint_min=23 / scenecut=40 / intra_refresh=0 / rc_lookahead=60 / rc=crf / mbtree=0 / crf=15.3000 / qcomp=0.65 / qpmin=0:0:0 / qpmax=69:69:69 / qpstep=4 / vbv_maxrate=62500 / vbv_bufsize=78125 / crf_max=0.0 / nal_hrd=none / filler=0 / ip_ratio=1.30 / pb_ratio=1.20 / aq=3:0.80 / aq-sensitivity=10.00 / aq-factor=1.00:1.00:1.00 / aq2=0 / aq3=0 / zones=9870,9892,crf=12.3/23223,23304,crf=13.3/23450,23602,crf=13.3/23643,23687,crf=13.3/24937,25128,crf=13.3/25293,25562,crf=13.3/25945,29416,crf=13/41360,41900,crf=13.3/45146,46597,crf=13.3/78001,78036,crf=13.3/81819,82154,crf=13.3/82345,82407,crf=13.3/82600,83667,crf=13.3/105348,105670,crf=13.3/105849,111800,crf=14.3/123337,123688,crf=14.3/129250,131556,crf=14.3/131557,131600,crf=12.3/133594,134140,crf=14.3/134170,142128,crf=19
Язык : English
Default : Да
Forced : Нет
Цветовой диапазон : Limited
Коэффициенты матрицы : BT.709
Аудио #1
Идентификатор : 2
Формат : DTS
Формат/Информация : Digital Theater Systems
Идентификатор кодека : A_DTS
Продолжительность : 1 ч. 38 м.
Вид битрейта : Постоянный
Битрейт : 1509 Кбит/сек
Каналы : 6 каналов
Расположение каналов : Front: L C R, Side: L R, LFE
Частота : 48,0 КГц
Частота кадров : 93,750 кадра/сек (512 SPF)
Битовая глубина : 24 бит
Метод сжатия : С потерями
Размер потока : 1,04 Гбайт (7%)
Заголовок : Дубляж [Blu-ray RUS]
Язык : Russian
Default : Да
Forced : Нет
Аудио #2
Идентификатор : 3
Формат : AC-3
Формат/Информация : Audio Coding 3
Идентификатор кодека : A_AC3
Продолжительность : 1 ч. 38 м.
Вид битрейта : Постоянный
Битрейт : 192 Кбит/сек
Каналы : 2 канала
Расположение каналов : Front: L R
Частота : 48,0 КГц
Частота кадров : 31,250 кадров/сек (1536 SPF)
Битовая глубина : 16 бит
Метод сжатия : С потерями
Размер потока : 136 Мбайт (1%)
Заголовок : Многоголосый закадровый [MEGOGO]
Язык : Ukrainian
ServiceKind/String : Complete Main
Default : Нет
Forced : Нет
Аудио #3
Идентификатор : 4
Формат : DTS
Формат/Информация : Digital Theater Systems
Идентификатор кодека : A_DTS
Продолжительность : 1 ч. 38 м.
Вид битрейта : Постоянный
Битрейт : 1509 Кбит/сек
Каналы : 6 каналов
Расположение каналов : Front: L C R, Side: L R, LFE
Частота : 48,0 КГц
Частота кадров : 93,750 кадра/сек (512 SPF)
Битовая глубина : 24 бит
Метод сжатия : С потерями
Размер потока : 1,04 Гбайт (7%)
Язык : English
Default : Нет
Forced : Нет
Текст #1
Идентификатор : 5
Формат : UTF-8
Идентификатор кодека : S_TEXT/UTF8
Идентификатор кодека/Информация : UTF-8 Plain Text
Продолжительность : 1 ч. 32 м.
Битрейт : 85 бит/сек
ElementCount : 1091
Размер потока : 57,5 Кбайт (0%)
Язык : Russian
Default : Нет
Forced : Нет
Текст #2
Идентификатор : 6
Формат : UTF-8
Идентификатор кодека : S_TEXT/UTF8
Идентификатор кодека/Информация : UTF-8 Plain Text
Продолжительность : 1 ч. 32 м.
Битрейт : 53 бит/сек
ElementCount : 1228
Размер потока : 36,0 Кбайт (0%)
Язык : English
Default : Нет
Forced : Нет
Текст #3
Идентификатор : 7
Формат : UTF-8
Идентификатор кодека : S_TEXT/UTF8
Идентификатор кодека/Информация : UTF-8 Plain Text
Продолжительность : 1 ч. 32 м.
Битрейт : 60 бит/сек
ElementCount : 1396
Размер потока : 40,8 Кбайт (0%)
Заголовок : SDH
Язык : English
Default : Нет
Forced : Нет
Текст #4
Идентификатор : 8
Формат : UTF-8
Идентификатор кодека : S_TEXT/UTF8
Идентификатор кодека/Информация : UTF-8 Plain Text
Продолжительность : 1 ч. 32 м.
Битрейт : 76 бит/сек
ElementCount : 1396
Размер потока : 51,9 Кбайт (0%)
Заголовок : SDH-Colored
Язык : English
Default : Нет
Forced : Нет
Меню
00:00:00.000 : en:00:00:00.000
00:05:23.448 : en:00:05:23.448
00:10:13.321 : en:00:10:13.321
00:14:14.520 : en:00:14:14.520
00:22:23.676 : en:00:22:23.676
00:27:21.932 : en:00:27:21.932
00:33:41.353 : en:00:33:41.353
00:37:41.384 : en:00:37:41.384
00:41:21.145 : en:00:41:21.145
00:46:37.795 : en:00:46:37.795
00:51:22.871 : en:00:51:22.871
00:56:48.238 : en:00:56:48.238
00:59:33.820 : en:00:59:33.820
01:04:07.635 : en:01:04:07.635
01:08:31.566 : en:01:08:31.566
01:13:09.927 : en:01:13:09.927
01:17:50.291 : en:01:17:50.291
01:21:09.531 : en:01:21:09.531
01:25:44.181 : en:01:25:44.181
01:33:19.594 : en:01:33:19.594

Source vs Encode

Added Border also Fixed Dirty Lines

Debanding



There are some intentional "bad looking" scenes which won't be filtered



Comparisons Screenshots



Скриншоты



Display posts:    

Current time is: 16-Oct 13:09

All times are UTC ± 0


You cannot post new topics in this forum
You cannot reply to topics in this forum
You cannot edit your posts in this forum
You cannot delete your posts in this forum
You cannot vote in polls in this forum
You cannot attach files in this forum
You cannot download files in this forum

!ATTENTION!
The site does not give electronic versions of products, and is engaged only in a collecting and cataloguing of the references sent and published at a forum by our readers. If you are the legal owner of any submitted material and do not wish that the reference to it was in our catalogue, contact us and we shall immediately remove her. Files for an exchange on tracker are given by users of a site, and the administration does not bear the responsibility for their maintenance. The request to not fill in the files protected by copyrights, and also files of the illegal maintenance!