Лунный рыцарь / Moon Knight / Сезон: 1 / Серии: 1-6 из 6 (Джастин Бенсон, Мохамед Диаб, Аарон Мурхед) [2022, США, Ужасы, фантастика, WEB-DLRip] MVO (TVShows) :: Российский Торрент трекер
Российский Торрент трекер
Яндекс.Погода
 

[Quote]
HUNTER

Лунный рыцарь / Moon Knight
Год выпуска: 2022
Страна: США
Жанр: Ужасы, фантастика
Продолжительность: ~ 00:45:00
Перевод: Профессиональный (многоголосый закадровый) TVShows
Режиссёр: Джастин Бенсон, Мохамед Диаб, Аарон Мурхед
В ролях: Оскар Айзек, Итэн Хоук, Мэй Каламави, Гаспар Ульель, Ф. Мюррэй Абрахам, Фернанда Андраде, София Асир, Диана Бермудес, Энн Акин, Рей Лукас
Описание: Бывший морпех, страдающий от диссоциативного расстройства, внезапно получает власть и силы египетского Бога Луны.
Доп. информация: Рип Wentworth_Miller
Подготовка озвучки TVShows и раздача Romanych_777
Сэмпл: http://sendfile.su/1645711
Качество: WEB-DLRip
Формат: AVI
Видео: XviD, 720x304 (2,35:1), 24,000 кадров/сек, 1700 Кбит/сек
Аудио: AC3, 48,0 kHz, 2 ch, 192 Кбит/сек | TVShows
Субтитры: Отсутствуют
Реклама:
Отсутствует

Список серий

1. Беда с золотой рыбкой / The Goldfish Problem
2. Вызови костюм / Summon the Suit
3. Дружелюбный тип / The Friendly Type
4. Гробница / The Tomb
5. Психбольница / Asylum
6. Боги и монстры / Gods and Monsters

MediaInfo

Общее
Полное имя : K:\Лунный рыцарь (Moon Knight) - TVShows\Moon Knight.2022.S01E01.WEB-DLRip-TVShows.avi
Формат : AVI
Формат/Информация : Audio Video Interleave
Размер файла : 619 Мбайт
Продолжительность : 45 м. 32 с.
Общий поток : 1 901 Кбит/сек
Программа кодирования : VirtualDubMod 1.5.10.3 | www.virtualdub-fr.org || (build 2550/release)
Библиотека кодирования : VirtualDubMod build 2550/release
Видео
Идентификатор : 0
Формат : MPEG-4 Visual
Профиль формата : Advanced [email protected]
Настройки формата : BVOP1 / Custom Matrix
Параметр BVOP формата : 1
Параметр QPel формата : Нет
Параметр GMC формата : Без точки перехода
Параметр матрицы формата : Выборочная
Идентификатор кодека : XVID
Идентификатор кодека/Подсказка : XviD
Продолжительность : 45 м. 32 с.
Битрейт : 1 700 Кбит/сек
Ширина : 720 пикселей
Высота : 304 пикселя
Соотношение сторон : 2,35:1
Частота кадров : 24,000 кадра/сек
Цветовое пространство : YUV
Субдискретизация насыщенности : 4:2:0
Битовая глубина : 8 бит
Тип развёртки : Прогрессивная
Метод сжатия : С потерями
Бит/(Пиксели*Кадры) : 0.324
Размер потока : 554 Мбайт (89%)
Библиотека кодирования : XviD 69
Аудио
Идентификатор : 1
Формат : AC-3
Формат/Информация : Audio Coding 3
Коммерческое название : Dolby Digital
Идентификатор кодека : 2000
Продолжительность : 45 м. 32 с.
Вид битрейта : Постоянный
Битрейт : 192 Кбит/сек
Каналы : 2 канала
Channel layout : L R
Частота : 48,0 КГц
Частота кадров : 31,250 кадров/сек (1536 SPF)
Метод сжатия : С потерями
Размер потока : 62,5 Мбайт (10%)
Выравнивание : Разделение по промежуткам
Продолжительность промежутка : 42 мс. (1,00 видеокадр)
Время предзагрузки промежутка : 500 мс.
Service kind : Complete Main

Скриншоты

Предыдущие и альтернативные раздачи


Display posts:    

Current time is: 26-May 10:53

All times are UTC ± 0


You cannot post new topics in this forum
You cannot reply to topics in this forum
You cannot edit your posts in this forum
You cannot delete your posts in this forum
You cannot vote in polls in this forum
You cannot attach files in this forum
You cannot download files in this forum

!ATTENTION!
The site does not give electronic versions of products, and is engaged only in a collecting and cataloguing of the references sent and published at a forum by our readers. If you are the legal owner of any submitted material and do not wish that the reference to it was in our catalogue, contact us and we shall immediately remove her. Files for an exchange on tracker are given by users of a site, and the administration does not bear the responsibility for their maintenance. The request to not fill in the files protected by copyrights, and also files of the illegal maintenance!